查看: 24322|回覆: 338
收起左側

[韓國MV] T-ara - Number 9 [繁中特效字幕] [1080p] [mp4] [373M/百度]

[複製連結]
發表於 2013-10-11 15:09:04 | 顯示全部樓層 |閱讀模式

馬上註冊,結交更多好友,享用更多功能,讓你輕鬆玩轉社區。

您需要 登錄 才可以下載或查看,沒有帳號?註冊

x
T妞穿旗袍身材好曼妙喔<3
0 o" }0 s( l% \5 k! f1 m  }7 O話說No.9是什麼意思阿...不懂?+ P& q$ b9 G. c2 }( W2 X% S
I'm in the duck...in the duck...呱呱XD
: [8 H4 _( Z) G9 s; _

. |( t' f) v/ ~0 R+ I  T, \[youtube]Kn8KKq60Koo[/youtube]6 @6 o( T) a: n: M# Q$ K

! A$ a* ~+ C& ?0 }5 y: `# S2 ~5 l9 |) i8 O+ \6 K! B
5 ~0 w) q3 j2 ~: s; b& x

2 W$ ]# |% f4 o$ e4 p2 E# A/ [5 a& \6 a& y8 t* w
; P$ p  m& j' ]4 J' g  }
3 W% y  v- n+ G) [" r# Z& L+ n

0 a: k( D6 |! {8 v8 \# r; t) D! D3 _8 B, m  J$ O( ?, B
4 {3 b# e! j2 ?* {) P
D:\T-ara - Number 9 [繁中特效字幕] [1080p] [pureland].mp4& K/ X. t" d, q. q
  General
! \5 o0 U$ R% K+ h! p' I    Complete name : D:\T-ara - Number 9 [繁中特效字幕] [1080p] [pureland].mp4
3 H1 \' A3 M% [$ V" R    Format : MPEG-4
! T5 a" J  }. L    Format profile : Base Media( a& R% I3 L) b% L7 I- w" f
    Codec ID : isom
7 _2 a+ |4 L; y# m( M  `9 _    File size : 373 MiB
) p" F+ v# Q4 g    Duration : 3mn 53s4 @1 }# g: S4 [7 Y* O8 L
    Overall bit rate mode : Variable/ e6 u5 T, c2 X" E
    Overall bit rate : 13.4 Mbps# ^9 @: `  ^+ s5 P9 u" n
    Encoded date : UTC 2013-10-11 05:19:25
8 B( T$ r. r' j1 I! U! k    Tagged date : UTC 2013-10-11 05:19:25
( Z, I0 Y7 g0 R1 q$ `  Video #19 r! h9 e! R! `& S& C1 ~) D
    ID : 1
: N: i& i+ [; k% R8 @4 o2 m    Format : AVC
# p. e+ i9 ]( N! E    Format/Info : Advanced Video Codec
6 y- @$ C+ v4 h/ R9 l% J& O    Format profile : Main@L4.0
6 e/ K8 c9 d" M) z    Format settings, CABAC : Yes& f6 M! [% t& p8 j) x7 n
    Format settings, ReFrames : 2 frames
* k8 X0 N* m& W2 b/ s* A    Format settings, GOP : M=2, N=291 o5 u' p% X  S. B! j+ g$ x) }
    Codec ID : avc13 g' }1 f" G3 l0 X9 F
    Codec ID/Info : Advanced Video Coding- A' Y) q3 G# B& `' f* b( c
    Duration : 3mn 53s
5 h/ T2 H% Z1 k- i    Bit rate : 13.1 Mbps/ @7 }  O& u0 i, E: w0 j
    Maximum bit rate : 19.7 Mbps( S0 n& U' ?$ `4 n
    Width : 1 920 pixels! X" a- U( j- i# [6 P
    Height : 1 080 pixels9 y; Z- H( `- w7 h
    Display aspect ratio : 16:9
" @- N4 s, x4 E& U2 M' |% D    Frame rate mode : Variable
7 o) ]: Z6 G9 ]    Frame rate : 29.970 fps2 x% z: @! Q4 @; d' X6 k7 [  y! y- c9 v4 B
    Minimum frame rate : 29.940 fps
! c9 }( b. r, J7 c) n2 d    Maximum frame rate : 29.970 fps
! K' B' P9 M( w+ T    Color space : YUV
% Z- S7 }  g  F3 ?- j" J    Chroma subsampling : 4:2:0# v3 i+ A+ [, z' }. ^) T! [$ \3 C
    Bit depth : 8 bits: z) T& o( ~5 \( D+ N7 _% _
    Scan type : Progressive
2 j( ~: a$ k8 ]+ V/ o* y, @    Bits/(Pixel*Frame) : 0.210
# O. {4 P/ G" g    Stream size : 364 MiB (98%)) ~. P  s0 w  `7 W2 E  [
    Language : English+ l3 e. |, o; r* M& t' H% O% z  n
    Encoded date : UTC 2013-10-11 05:17:23$ b( v6 l% L& b# n
    Tagged date : UTC 2013-10-11 05:19:251 O' \4 ^( K" Y3 K
  Audio #2
, P6 \6 h% u2 P$ R% x! `: ~5 F    ID : 2
# Z" x. b+ r  ^" i+ Z* w2 E' G/ b    Format : AAC9 A2 i" ?$ |, L( }+ Z. p% t8 ?
    Format/Info : Advanced Audio Codec
% W  f. k6 J! F/ M! K  n    Format profile : LC; N/ f5 c4 F9 w, E- _8 R$ a' |& g
    Codec ID : 40
0 G0 ^% [5 l" [5 I' h  ^! a    Duration : 3mn 53s# j/ }; x" M9 x+ e( {- n! K
    Bit rate mode : Variable8 E5 S3 j, C& k$ k* ?3 K
    Bit rate : 317 Kbps
+ {$ P3 d6 E6 Y* A  y6 o8 }    Maximum bit rate : 325 Kbps
8 F. r( H9 s7 c    Channel count : 2 channels+ y) F* e  c% M; N, w- Z, s# _/ I
    Channel positions : Front: L R
* L" ~- k, c1 r, D) z    Sampling rate : 48.0 KHz
: c  \! C/ c2 j: s    Compression mode : Lossy( U7 s/ [& a  Y( q
    Stream size : 8.85 MiB (2%)
) W6 u! G0 ~/ k, T0 a. A/ v    Language : Korean$ F6 R, H2 C1 c" y. a# M0 v' Z1 z
    Tagged date : UTC 2013-10-11 05:19:25
! R- E: ]9 W7 o$ h  v# i

. E! Q6 ^5 E5 G載點:
! ?# p0 y/ s+ @5 f9 @9 ^
遊客,如果您要查看本文隱藏內容請回覆

評分

參與人數 2名聲 +26 精幣 +21 收起 理由
hkskw + 20 + 15 精品文章
twins-jacky + 6 + 6 精品文章

查看全部評分

發表於 2013-10-11 15:16:49 | 顯示全部樓層
T-ara 這首新歌很好聽...謝謝分享
回覆 支持 反對

使用道具 檢舉

發表於 2013-10-11 15:20:21 | 顯示全部樓層
又有T-ara的新歌可以看了# [1 o- n6 ?5 J, q
已看過其他版本 但就是聽不懂唱啥4 t6 B/ E# K0 u; s( k% F
多謝大大分享中文字幕版 這下可好好欣賞了7 h& b: ~6 o8 O. X, E& C7 o
回覆 支持 反對

使用道具 檢舉

發表於 2013-10-11 16:12:16 | 顯示全部樓層
新歌真的很好聽,MV更是經典.T-ara最近蠻活躍的~~謝謝分享
回覆 支持 反對

使用道具 檢舉

發表於 2013-10-11 16:28:54 | 顯示全部樓層
网上看到的解释:
4 N& X- q# t( I   No.9是Love potion no.9 的缩写是 1966年由the searcher演唱的英文歌 ,歌词是一个落魄的汉纸去找一个女人调配名为 Love potion no.9的爱情灵药 感觉可以是将所爱之人比喻成这款爱情灵药 也有可能理解成将爱情灵药拟人化 来表现那份陷入爱情里面伤痛的模样

評分

參與人數 1名聲 +2 精幣 +2 收起 理由
pureland + 2 + 2 熱心助人^^

查看全部評分

回覆 支持 反對

使用道具 檢舉

發表於 2013-10-11 17:02:26 | 顯示全部樓層
VERY BAD SITUATION FOR TARA NOW FACING IN KOREA, THEY REALLY NEED A SONG TO BREAK IT OUT, HOPE THEY CAN DO IT!,
回覆 支持 反對

使用道具 檢舉

發表於 2013-10-11 17:23:43 | 顯示全部樓層
顶一个,谢谢分享,喜欢
回覆 支持 反對

使用道具 檢舉

發表於 2013-10-11 17:27:59 | 顯示全部樓層
t-ara終於出新歌了1 s% M) D- ?5 y3 u: t  O
期待好久了阿 XD
回覆 支持 反對

使用道具 檢舉

發表於 2013-10-11 17:30:48 | 顯示全部樓層
T妞真的是太正了
7 p* g, l3 l7 I  T歡迎回歸
回覆 支持 反對

使用道具 檢舉

發表於 2013-10-11 17:33:28 | 顯示全部樓層
又是一首旋律讓人很中毒的歌!
7 B6 \* n% r: N9 ^% x; n/ P' w聽久了會上癮!
回覆 支持 反對

使用道具 檢舉

發表於 2013-10-11 17:33:46 | 顯示全部樓層
T妞的MV必定收藏了呢~
# D6 ?: h9 S' x不能錯過呢~: I5 }% i8 W# b
謝謝樓主分享特效字幕版呢
回覆 支持 反對

使用道具 檢舉

發表於 2013-10-11 18:06:22 | 顯示全部樓層
終於有點熱鬧了..TARA這首很好聽 希望成績能好
回覆 支持 反對

使用道具 檢舉

發表於 2013-10-11 18:11:15 | 顯示全部樓層
中字版的耶!!!!
4 s9 x7 e! B1 }# J! u+ O2 v1 G8 j3 t1 |- N. p
這首也蠻好聽的!!!
! U- m0 J9 m7 V7 v
回覆 支持 反對

使用道具 檢舉

發表於 2013-10-11 18:52:32 | 顯示全部樓層
來看中文字幕
& I( J" ^( V# C" h* c不然真的聽不懂唱什麼= ="
6 |3 z/ c6 ~( h6 G/ b兩首素妍都是主唱~
回覆 支持 反對

使用道具 檢舉

發表於 2013-10-11 19:15:40 | 顯示全部樓層
发展的不错嘛  出道能有2年的时间?  这次少了一个人吧
回覆 支持 反對

使用道具 檢舉

發表於 2013-10-11 19:27:44 | 顯示全部樓層
T-ARA新歌 絕對不能錯過
$ @( `. `/ y# Q等好久了 謝謝樓主分享
回覆 支持 反對

使用道具 檢舉

發表於 2013-10-11 19:28:14 | 顯示全部樓層
T-ARA又出新歌了!6 g( [5 S6 c1 m  |; I: }& H
上次回歸已經有一段時間了
) V( f( i) h( T. @6 v不知道風格是否會有變化
回覆 支持 反對

使用道具 檢舉

發表於 2013-10-11 19:28:55 | 顯示全部樓層
這首新歌蠻好聽的2 E+ U; t8 s; i. j5 g
# B8 H! W% o) f4 s
特別是孝敏的鏡頭好多喔
回覆 支持 反對

使用道具 檢舉

發表於 2013-10-11 19:33:06 | 顯示全部樓層
Master is just too fast and greaterhelp to us* X4 ?: g+ V! H( H* J+ T: r  }
Thanks for sharing
回覆 支持 反對

使用道具 檢舉

發表於 2013-10-11 19:33:24 | 顯示全部樓層
又有T-ara的新歌可以看了
8 A6 ?2 F( _$ @$ z已看過其他版本 但就是聽不懂唱啥這首新歌蠻好聽的等好久了 謝謝樓主分享
回覆 支持 反對

使用道具 檢舉

您需要登錄後才可以回文 登錄 | 註冊

再次提醒,當您點擊發表回覆,視同您已經明白本討論區的版規,如不明白請先參見各版版規。

熱門推薦

帶動4K經濟就是要靠這一味,韓國4K UHD頻道強力放送(下載-少女時代L.A演出現場)
帶動4K經濟就是要靠這一味
目前韓國已經擁有5個UHD超高清頻道,分別是:UMAX, CJ E&M
6年時光終成紫郢劍,紫色的聲音出鞘
6年時光終成紫郢劍,紫色
是的,文章開頭我引用了1983年電影新蜀山劍俠的紫郢劍,以及歌手
小試身手就可以越級打怪-秦朝3115D
小試身手就可以越級打怪-
音響其實是比較級的東西,早期剛開始接觸沒幾年的時候都會有很比
Blue Aura x30 主動式電腦小喇叭
Blue Aura x30 主動式電腦
第一次開箱Blue Aura x30 主動式電腦小揚聲器 1. 外箱 2. 小喇
淺談色度計與光譜儀的差異
淺談色度計與光譜儀的差異
本文章最後由 真平 於 2012-12-5 06:45 編輯 近年來由於影像

聯絡我們| 問題反映| 小黑屋| 手機版| Archiver|  本網站特別聘請 蔡家豪律師 為本站法律顧問

快速回覆 返回頂部 返回列表