查看: 23496|回覆: 338
收起左側

[韓國MV] T-ara - Number 9 [繁中特效字幕] [1080p] [mp4] [373M/百度]

[複製連結]
發表於 2013-10-11 15:09:04 | 顯示全部樓層 |閱讀模式

馬上註冊,結交更多好友,享用更多功能,讓你輕鬆玩轉社區。

您需要 登錄 才可以下載或查看,沒有帳號?註冊

x
T妞穿旗袍身材好曼妙喔<3
, z' a$ e# C( K4 ^" G/ v4 r7 g話說No.9是什麼意思阿...不懂?
8 e6 `( u4 O+ cI'm in the duck...in the duck...呱呱XD

2 p( X3 i9 @7 }0 B. N( T: W5 J
2 C! e, C# F. a& V' s, G[youtube]Kn8KKq60Koo[/youtube]- W& v; S- V9 F; M

: Y: d& _( y1 i$ J3 @8 w/ K6 `9 \5 ~4 S+ y% ~: X
1 k! R) }: ^/ n2 m9 C

# ]5 x: U( \; S4 C% T( m
$ |3 G0 T- _  `6 K
$ z9 K0 E3 }" b6 f
6 ]4 g  [+ @& w5 r, j& y7 t6 s* C6 N7 Q( d

( o) K  \. c5 |# }9 o! ^, T
+ ?1 m; C$ ]) }4 X7 w0 r) h
D:\T-ara - Number 9 [繁中特效字幕] [1080p] [pureland].mp4* D# B/ @3 e) `# L2 S  l
  General* G8 w. V/ ~" `
    Complete name : D:\T-ara - Number 9 [繁中特效字幕] [1080p] [pureland].mp4
6 D6 L$ N, r$ }/ }& }: E9 N    Format : MPEG-42 z6 {2 a! c3 i& H$ V
    Format profile : Base Media5 T! |. j# M& R
    Codec ID : isom! ]5 s9 a# c; F
    File size : 373 MiB
# `3 F+ z0 Q$ c# B% G    Duration : 3mn 53s
; D8 e7 {4 _- T# r2 [& T- o, l. n$ q    Overall bit rate mode : Variable
1 X1 p; o8 [$ e8 B$ z1 T, h( t    Overall bit rate : 13.4 Mbps
# R! j  {- ]$ N. r0 W    Encoded date : UTC 2013-10-11 05:19:25
7 z" X8 K0 E# Z6 Q5 A9 |    Tagged date : UTC 2013-10-11 05:19:25
: Y6 `7 Q  h5 u5 o0 o+ U1 k  Video #1. I# q' v# j- l8 y+ I4 o
    ID : 1
/ B4 {: y' Z0 [, T; h    Format : AVC! V  I- p8 Q. M( R" m& D1 L0 [( I
    Format/Info : Advanced Video Codec) D; k0 ?6 T+ `) u8 R* l+ y0 c
    Format profile : Main@L4.0/ ?0 j3 V) A! w  w( d; y
    Format settings, CABAC : Yes
* b* e( y) d( F; x" K. m3 B( i    Format settings, ReFrames : 2 frames0 |) h0 Y; p1 g! u$ k/ @' ?# Z
    Format settings, GOP : M=2, N=29* K, s8 a4 A1 }+ W4 c* X" c
    Codec ID : avc1- T" o) |/ v) T3 l: B
    Codec ID/Info : Advanced Video Coding& F2 l, p/ d7 V1 e
    Duration : 3mn 53s
! S2 {2 e: h8 J6 w! s0 L8 t    Bit rate : 13.1 Mbps( u/ ?- x/ B* A. j4 Z  L
    Maximum bit rate : 19.7 Mbps
- K2 |+ G( I* X, ]( \    Width : 1 920 pixels' m8 ^2 ~- w" {+ K+ [4 j
    Height : 1 080 pixels
$ F  l5 e0 E( p: ]  K, g& b3 l6 D    Display aspect ratio : 16:9
' P; ]" G7 S* m    Frame rate mode : Variable+ [, [$ s/ I, g; a* n
    Frame rate : 29.970 fps) Z5 D8 _- }3 g! ]# W9 V. x  `
    Minimum frame rate : 29.940 fps
' `; y' H7 N1 T: Y/ k    Maximum frame rate : 29.970 fps; `+ ^* u2 v. I% o
    Color space : YUV
" g3 b+ b( X$ v7 Q9 \    Chroma subsampling : 4:2:0! I' u9 r% F5 x8 d
    Bit depth : 8 bits
" Q/ ^: m7 d2 }1 g" D    Scan type : Progressive
/ E& q$ z+ q) N2 r/ Y    Bits/(Pixel*Frame) : 0.210
) `6 S# a- y8 {1 `% @    Stream size : 364 MiB (98%)
, E( E# M% s# S- V7 k    Language : English
; `- }3 u9 b* v* e7 |  n/ u% e- c" Y    Encoded date : UTC 2013-10-11 05:17:23
* n8 K- e7 y5 [    Tagged date : UTC 2013-10-11 05:19:25
' Y# W1 m! L6 ^' p% }2 j5 _4 G  Audio #2
! y  R7 A% ]& X2 n& F; }    ID : 2- ~- }' ^9 J/ {. {% ]
    Format : AAC0 b- Y! _( Z+ _. E6 @. P) M
    Format/Info : Advanced Audio Codec5 c+ m8 e" J8 L/ I+ m8 Z
    Format profile : LC
( X4 w0 G$ y7 m7 V. n; d    Codec ID : 400 u3 F, W4 y' m
    Duration : 3mn 53s& N1 ?; V6 o% p* o' }+ e) |& P
    Bit rate mode : Variable9 ^. ?  G+ i8 {1 r
    Bit rate : 317 Kbps
3 I; A9 I0 D3 J6 |. E+ D# u    Maximum bit rate : 325 Kbps
: `( C" j7 W2 n    Channel count : 2 channels6 {; z! y3 w* B0 n8 g, H/ ?) D
    Channel positions : Front: L R& D+ J3 p" N- P( w/ T& t# G' q
    Sampling rate : 48.0 KHz0 _! M& V$ N: C, C! k5 ]4 y$ O2 n! b
    Compression mode : Lossy3 P) j! S7 P7 V- y" j& h+ A* n
    Stream size : 8.85 MiB (2%)7 v0 U7 L6 \6 F. C; U8 h, Q8 I
    Language : Korean
) q& v% t; ^* r2 T& |% X    Tagged date : UTC 2013-10-11 05:19:25
0 b$ ?) L/ a* }3 r* f; w, }
) ]) Y& n9 w* V7 v" d5 A# _
載點:
$ Q' W0 f8 p% c, [7 M+ l; s+ z, I, ]
遊客,如果您要查看本文隱藏內容請回覆

評分

參與人數 2名聲 +26 精幣 +21 收起 理由
hkskw + 20 + 15 精品文章
twins-jacky + 6 + 6 精品文章

查看全部評分

發表於 2013-10-11 15:16:49 | 顯示全部樓層
T-ara 這首新歌很好聽...謝謝分享
回覆 支持 反對

使用道具 舉報

發表於 2013-10-11 15:20:21 | 顯示全部樓層
又有T-ara的新歌可以看了
& ]7 s* J6 H) i0 N% W, _( ?已看過其他版本 但就是聽不懂唱啥
" p) E0 x. z" D/ f0 T9 D7 |$ O2 b多謝大大分享中文字幕版 這下可好好欣賞了  ?9 z3 G/ q4 ~8 `9 [0 z
回覆 支持 反對

使用道具 舉報

發表於 2013-10-11 16:12:16 | 顯示全部樓層
新歌真的很好聽,MV更是經典.T-ara最近蠻活躍的~~謝謝分享
回覆 支持 反對

使用道具 舉報

發表於 2013-10-11 16:28:54 | 顯示全部樓層
网上看到的解释:4 V1 A( F  X, s" x/ u& t3 @
   No.9是Love potion no.9 的缩写是 1966年由the searcher演唱的英文歌 ,歌词是一个落魄的汉纸去找一个女人调配名为 Love potion no.9的爱情灵药 感觉可以是将所爱之人比喻成这款爱情灵药 也有可能理解成将爱情灵药拟人化 来表现那份陷入爱情里面伤痛的模样

評分

參與人數 1名聲 +2 精幣 +2 收起 理由
pureland + 2 + 2 熱心助人^^

查看全部評分

回覆 支持 反對

使用道具 舉報

發表於 2013-10-11 17:02:26 | 顯示全部樓層
VERY BAD SITUATION FOR TARA NOW FACING IN KOREA, THEY REALLY NEED A SONG TO BREAK IT OUT, HOPE THEY CAN DO IT!,
回覆 支持 反對

使用道具 舉報

發表於 2013-10-11 17:23:43 | 顯示全部樓層
顶一个,谢谢分享,喜欢
回覆 支持 反對

使用道具 舉報

發表於 2013-10-11 17:27:59 | 顯示全部樓層
t-ara終於出新歌了
6 X- [6 a, f: `$ z: m2 d期待好久了阿 XD
回覆 支持 反對

使用道具 舉報

發表於 2013-10-11 17:30:48 | 顯示全部樓層
T妞真的是太正了4 u0 y* P% _) w
歡迎回歸
回覆 支持 反對

使用道具 舉報

發表於 2013-10-11 17:33:28 | 顯示全部樓層
又是一首旋律讓人很中毒的歌!7 I6 a+ }1 C8 Q$ N
聽久了會上癮!
回覆 支持 反對

使用道具 舉報

發表於 2013-10-11 17:33:46 | 顯示全部樓層
T妞的MV必定收藏了呢~
% ~. }6 D' _0 |% [  J  Z不能錯過呢~
% z6 M0 }: M1 T4 {, z9 |謝謝樓主分享特效字幕版呢
回覆 支持 反對

使用道具 舉報

發表於 2013-10-11 18:06:22 | 顯示全部樓層
終於有點熱鬧了..TARA這首很好聽 希望成績能好
回覆 支持 反對

使用道具 舉報

發表於 2013-10-11 18:11:15 | 顯示全部樓層
中字版的耶!!!!" ?0 N4 _% B' v# m# m
) e7 G0 Q- Q; s' G% P
這首也蠻好聽的!!!5 b* u# w0 N8 x$ G3 S; ]
回覆 支持 反對

使用道具 舉報

發表於 2013-10-11 18:52:32 | 顯示全部樓層
來看中文字幕
5 d1 e% u- t$ K' ]不然真的聽不懂唱什麼= ="
  q) \5 R8 ?( [7 n: d& W% {兩首素妍都是主唱~
回覆 支持 反對

使用道具 舉報

發表於 2013-10-11 19:15:40 | 顯示全部樓層
发展的不错嘛  出道能有2年的时间?  这次少了一个人吧
回覆 支持 反對

使用道具 舉報

發表於 2013-10-11 19:27:44 | 顯示全部樓層
T-ARA新歌 絕對不能錯過
$ C8 {. K: ?' n! w# C+ A# T等好久了 謝謝樓主分享
回覆 支持 反對

使用道具 舉報

發表於 2013-10-11 19:28:14 | 顯示全部樓層
T-ARA又出新歌了!
7 m5 q5 F/ o2 W  `9 ?上次回歸已經有一段時間了, b/ I; Y8 T$ m
不知道風格是否會有變化
回覆 支持 反對

使用道具 舉報

發表於 2013-10-11 19:28:55 | 顯示全部樓層
這首新歌蠻好聽的# M+ e. R+ p( S7 W2 n$ m& v5 ?

6 W! \# V! C& Y% W3 `7 L3 v% w特別是孝敏的鏡頭好多喔
回覆 支持 反對

使用道具 舉報

發表於 2013-10-11 19:33:06 | 顯示全部樓層
Master is just too fast and greaterhelp to us
+ l: W+ S4 A9 h# P" L; QThanks for sharing
回覆 支持 反對

使用道具 舉報

發表於 2013-10-11 19:33:24 | 顯示全部樓層
又有T-ara的新歌可以看了; A3 A9 L( l# O" c
已看過其他版本 但就是聽不懂唱啥這首新歌蠻好聽的等好久了 謝謝樓主分享
回覆 支持 反對

使用道具 舉報

您需要登錄後才可以回文 登錄 | 註冊

本版積分規則

熱門推薦

帶動4K經濟就是要靠這一味,韓國4K UHD頻道強力放送(下載-少女時代L.A演出現場)
帶動4K經濟就是要靠這一味
目前韓國已經擁有5個UHD超高清頻道,分別是:UMAX, CJ E&M
單件式環繞音響HT-Z9F / HT-X9000F 「聲」級再現立體真實 4K HDR藍光播放器UBP-X700  放送影院級視覺享受
單件式環繞音響HT-Z9F / H
Sony 在台為居家影音娛樂帶來更優異音效及影像播放的新陣
邁向萬物互聯時代!SMG攜手上海電信、富士康推出“5G+8K”試驗網
邁向萬物互聯時代!SMG攜
5月17日,2018世界電信和信息社會日當天,SMG下屬東方明珠新媒體
Optoma奧圖碼 4K 智慧家庭劇院投影機 首度亮相2018高雄國際HI-END音響大展
Optoma奧圖碼 4K 智慧家庭
為讓台灣消費者搶先體驗舒適便捷的智慧家居生活,全球投影機專
Sony 全新運動耳機打造”型”動時尚
Sony 全新運動耳機打造”
#全球首款真無線降噪1 #防潑水 #重低音WF-SP700N釋放自由聽感無

聯絡我們| 問題反映| 小黑屋| 手機版| Archiver|  本網站特別聘請 蔡家豪律師 為本站法律顧問

快速回覆 返回頂部 返回列表