查看: 836|回覆: 8
收起左側

[華語TV] 张学友 - 李香兰《国产凌凌漆》插曲高清剪辑(国粤双音轨)[MP4/1080P/124M]

[複製連結]
發表於 2016-12-16 23:34:00 | 顯示全部樓層 |閱讀模式

馬上註冊,結交更多好友,享用更多功能,讓你輕鬆玩轉社區。

您需要 登錄 才可以下載或查看,沒有帳號?註冊

x
0.jpg
) t' S* l$ A/ M! ?" m: D/ [4 x) q, ^# \7 `
国产凌凌漆 这个片段里的星爷真是完美演绎了风流倜傥的典范啊,而今青春风采桀骜不再,再次重温,却多了几分感慨和缅怀...
7 D/ S/ p0 Q: r' v/ i6 p3 I
5 f6 }% ?8 w; ?5 I( J6 k, S4 B/ T   General( K$ `: D. n8 {$ E- s
      Complete name : 张学友 - 李香兰《国产凌凌漆》插曲高清剪辑(国粤双音轨).mp4  o$ f, a$ i, d6 s7 X! y2 P/ ~
      Format : MPEG-48 }) ~& J& R9 }: c
      Format profile : Base Media
. p: \5 q. d& y+ S; ~1 h      Codec ID : isom1 f+ a- H4 N- o, O2 ?9 C
      File size : 121 MiB
! W: d- @1 o- L7 i* E; s      Duration : 1mn 55s0 ~4 |+ W' k  `/ J- i
      Overall bit rate : 8 778 Kbps+ r* T$ ?! ^; _
      Encoded date : UTC 1970-01-01 00:00:00; {2 l& u! M6 I0 j/ E
      Tagged date : UTC 1970-01-01 00:00:00
& l8 W) C' {& I5 D3 c5 \   Video #1, X0 j8 Q+ u. I! F$ Q
      ID : 1
4 G( B0 F7 {0 I$ M6 k      Format : AVC
* m' \  L7 g9 g$ O( f! m6 [# ]$ J      Format/Info : Advanced Video Codec5 ?, x; [3 Y1 {0 _/ U! Y
      Format profile : High@L5
9 w/ }6 o) k' `  o; r$ u2 T      Format settings, CABAC : Yes
7 B" E5 O# q+ L* Q" [8 ?% U      Format settings, ReFrames : 8 frames; Q1 n4 f- W( J
      Codec ID : avc16 i# i( h0 w+ ^( l
      Codec ID/Info : Advanced Video Coding/ y* B3 C, j9 l/ z' }$ @& p5 S
      Duration : 1mn 55s3 j7 E3 u& G, x) r, r
      Bit rate : 8 002 Kbps' [" V& B- u; g+ t, k( {# L  _
      Width : 1 920 pixels
6 O$ C. U7 P. _9 H" ^, G9 L. v6 Y4 Y      Height : 1 080 pixels
6 _8 Z9 c: \4 x" j' n5 T      Display aspect ratio : 16:91 E& `9 T/ P' w( {: X; d
      Frame rate mode : Constant  q2 n0 I+ v& |
      Frame rate : 30.000 fps
2 K% P3 i( f2 d      Color space : YUV0 N4 b& ~9 @9 A+ ~( r
      Chroma subsampling : 4:2:0
! a+ y- ~& w) O$ W( D& ]6 ?      Bit depth : 8 bits
& y: J, d# K3 B5 X( t9 Q0 t      Scan type : Progressive, L# F3 f8 \& @: _9 o
      Bits/(Pixel*Frame) : 0.129: Y+ g  g5 {$ S( T/ H( M  p
      Stream size : 110 MiB (91%); x8 i1 O& m8 U  k: L
      Language : English
" e/ y$ L+ k9 d/ v      Encoded date : UTC 1970-01-01 00:00:00( D; G6 L- t5 U8 O
      Tagged date : UTC 1970-01-01 00:00:00$ b6 s% J0 m* V& \6 b: u
   Audio #24 k3 I+ G/ A1 s2 n. ^9 Y
      ID : 2, d3 w7 g+ ^: ]0 _: t
      Format : AC-31 F4 v& f5 @0 N5 H; q
      Format/Info : Audio Coding 3
0 c" ?: t8 e1 ]1 h1 b  _7 E- X- `      Mode extension : CM (complete main)) t( A8 j8 }2 l
      Format settings, Endianness : Big
* ]$ F! Y- {: g, g      Codec ID : ac-3
8 Z1 F+ V& A2 `7 U; k& l3 j      Duration : 1mn 55s4 a2 S2 s) w4 P
      Source duration : 1mn 55s
8 f) p' ]0 s# v# ?' l$ L, s3 X      Bit rate mode : Constant5 k* ]8 Q  P/ w; q
      Bit rate : 384 Kbps5 R' ^0 u( g  E7 s
      Channel(s) : 6 channels6 E; R3 O1 ~( p* k. d
      Channel positions : Front: L C R, Side: L R, LFE9 ~% H6 W# E+ O# U9 p
      Sampling rate : 48.0 KHz- \, W3 S& w9 `" q# s
      Bit depth : 16 bits% ^2 q7 e* i( X+ `
      Compression mode : Lossy, J8 O% R1 z: M: Q6 Z" v% H1 X) c: c; t
      Stream size : 5.30 MiB (4%)
: G1 p/ R, ~2 L  T$ W1 F      Source stream size : 5.30 MiB (4%)
" L2 D* |4 y; A; k0 g: d1 ~      Language : English
5 z2 M5 W! g" [7 B/ a5 {  k      Encoded date : UTC 1970-01-01 00:00:00* ]7 {$ C% a# c1 C' m2 u( m
      Tagged date : UTC 1970-01-01 00:00:00
6 G# [, H1 t+ |1 n1 m      mdhd_Duration : 115741
% b% M, P4 p# j$ K3 x( R* u   Audio #3* F) D7 k0 q- r! {1 l7 [
      ID : 3
7 K" F' ]: L3 r      Format : AC-3- k6 [7 F2 t" v
      Format/Info : Audio Coding 36 K0 V8 W  v) s- H6 c; Z
      Mode extension : CM (complete main). c; e2 S5 }" G. a! h
      Format settings, Endianness : Big
0 V" I& m, [: y! K0 e7 h% o0 s- M      Codec ID : ac-3
' K2 c# U; A# x; |3 \5 l      Duration : 1mn 55s# z3 S0 |8 H% a$ T6 q; D2 y6 X' @
      Source duration : 1mn 55s% D; B- D8 I3 q7 ?
      Bit rate mode : Constant% f( Q9 p+ t" X6 w9 C5 W+ a, p$ A4 R5 [
      Bit rate : 384 Kbps& k3 M" \! w) Y; C$ p6 E
      Channel(s) : 6 channels
5 C8 H. d% N9 A# c9 }5 a      Channel positions : Front: L C R, Side: L R, LFE
+ m* u# h  u7 {, z7 w& h; C7 X      Sampling rate : 48.0 KHz
6 b; g) b1 C5 N4 x6 s8 O/ j$ N      Bit depth : 16 bits
9 v% h; l* d* b% J+ ]6 S0 n0 r      Compression mode : Lossy4 Z. _/ D- {- ]" K
      Stream size : 5.30 MiB (4%)7 N( }- J, G4 H. I. s
      Source stream size : 5.30 MiB (4%)
) u, b- A6 {$ H      Language : English
! \2 P7 N' o4 b1 m      Encoded date : UTC 1970-01-01 00:00:00( G; W& l* \7 i& ~4 b
      Tagged date : UTC 1970-01-01 00:00:00% J2 C/ j& e7 @8 |$ `  c; E3 G
      mdhd_Duration : 115741
3 Z0 H& D9 n8 F$ e) m/ R, a! X! a+ e$ A! r
1.JPG   I1 a$ X) d% `0 A1 t9 L3 V
2.JPG % f, S% h, C2 l- K# x7 W
3.JPG % Y5 `& [' `$ o$ t+ j2 z. W2 u$ O
4.JPG   h( V8 [+ q& r6 `
5.JPG 0 u  C- |- }" r
2 ]- _+ P- B: @+ j3 }# c3 Z
链接:http://pan.baidu.com/s/1mhYyLGO
( W  R6 y: W5 m$ k+ X9 }. ]7 K密码:lz1k
發表於 2016-12-17 00:23:06 | 顯示全部樓層
蠻喜歡這首歌的( I0 a8 Q0 I4 H- \+ Z
周爺電影中都會有首歌
; B; J6 D2 d* t這首是其中我蠻喜歡的......又讓我想起大話西遊的"一生所愛"
* W/ ~# n2 v; O, h; c' T來去再聽歌' ?# t& E( B/ M$ a: _, V  @+ o
感謝分享9 v: l' K8 w* a$ D4 |
回覆 支持 反對

使用道具 檢舉

發表於 2016-12-20 22:32:45 | 顯示全部樓層
很喜歡的電影 也是很喜歡的歌 感謝版大辛苦分享
回覆 支持 反對

使用道具 檢舉

發表於 2016-12-27 22:53:26 | 顯示全部樓層
楼主厉害 这个居然都有剪辑!
回覆 支持 反對

使用道具 檢舉

發表於 2016-12-28 13:43:41 | 顯示全部樓層
谢谢分享
回覆 支持 反對

使用道具 檢舉

發表於 2017-1-2 09:13:33 | 顯示全部樓層
哇 这个绝对经典呀
7 {3 n& V& c- j* i+ @' `' x我来看看 !!
回覆 支持 反對

使用道具 檢舉

發表於 2017-1-30 22:06:15 | 顯示全部樓層
经典啊~张学友的歌一直很好听
: A4 }/ w: ]# D& T来看看 !!: R) @/ L7 O8 J- k, M
谢谢
回覆 支持 反對

使用道具 檢舉

發表於 2017-3-18 07:07:52 | 顯示全部樓層
秋意濃的粵語版 好聽的歌永不會被遺忘
回覆 支持 反對

使用道具 檢舉

發表於 2018-4-16 03:31:00 | 顯示全部樓層

5 |; s& w7 e' r, [& ]很喜歡的電影 也是很喜歡的歌 感謝版大辛苦分享
回覆 支持 反對

使用道具 檢舉

您需要登錄後才可以回文 登錄 | 註冊

再次提醒,當您點擊發表回覆,視同您已經明白本討論區的版規,如不明白請先參見各版版規。

熱門推薦

Panasonic 50EX750改電源線問題
Panasonic 50EX750改電源
Panasonic 50EX750改電源線問題 請問圖中白色插在那可找到
電工發燒日記【家訪桃園藍綾兄】
電工發燒日記【家訪桃園藍
PART-1 幾年前小許對於劇院根本不在乎,認為劇院.. 跑跑audyss
視聽室改造(聲學設計>>增設吸音器)20180621更新
視聽室改造(聲學設計>>增
視聽室完成已經有六七年了,當初是diy自己搞的 那時候也沒有太多
6年時光終成紫郢劍,紫色的聲音出鞘
6年時光終成紫郢劍,紫色
是的,文章開頭我引用了1983年電影新蜀山劍俠的紫郢劍,以及歌手
SONY HT-ST5000 令人無言的小缺陷
SONY HT-ST5000 令人無言
小弟我上禮拜購入SONY HT-ST5000 後來在使用上發現當連接的設備

聯絡我們| 問題反映| 小黑屋| 手機版| Archiver|  本網站特別聘請 蔡家豪律師 為本站法律顧問

快速回覆 返回頂部 返回列表