查看: 642|回覆: 8
收起左側

[華語TV] 张学友 - 李香兰《国产凌凌漆》插曲高清剪辑(国粤双音轨)[MP4/1080P/124M]

[複製連結]
發表於 2016-12-16 23:34:00 | 顯示全部樓層 |閱讀模式

馬上註冊,結交更多好友,享用更多功能,讓你輕鬆玩轉社區。

您需要 登錄 才可以下載或查看,沒有帳號?註冊

x
0.jpg ' y6 F4 m0 z" V2 P1 n: J0 z

, S: {" i2 w2 {0 o+ q/ b国产凌凌漆 这个片段里的星爷真是完美演绎了风流倜傥的典范啊,而今青春风采桀骜不再,再次重温,却多了几分感慨和缅怀...
  r: G3 e: i0 t" \5 }. E2 H# Y- S  b* ^
   General
6 ~/ l' ]) K# T% i5 t8 ?/ ?  |      Complete name : 张学友 - 李香兰《国产凌凌漆》插曲高清剪辑(国粤双音轨).mp4$ A) b1 q- ?. P; `( F' J
      Format : MPEG-4: ]9 @4 _. G% Z
      Format profile : Base Media" q/ `9 X9 K. K- Z9 e
      Codec ID : isom& P: }# m  u2 }  z  A+ [* M: P0 P
      File size : 121 MiB6 z  H: a' o# \4 ]5 j5 D
      Duration : 1mn 55s
4 I6 v- q) b2 A$ S. ]      Overall bit rate : 8 778 Kbps  a. s; c: {/ t3 |
      Encoded date : UTC 1970-01-01 00:00:00
4 }* [; n/ u/ y. g      Tagged date : UTC 1970-01-01 00:00:00* J- \# l# U- _
   Video #1
6 P7 V4 |$ }; g, ]# h: U      ID : 1
; q" `( t* g" Q7 j! W0 ]. Q3 E' X      Format : AVC# Q3 s) e" i* V, ]7 Q
      Format/Info : Advanced Video Codec
. S0 U6 p6 O! s& Z7 h; _% k      Format profile : High@L57 r& X+ K, J( d
      Format settings, CABAC : Yes2 j, E+ n0 ~, f  c8 Q4 \
      Format settings, ReFrames : 8 frames2 ]  ?- l/ r( S2 V2 ]! ?
      Codec ID : avc17 p- v) |' }, o, g3 t- J
      Codec ID/Info : Advanced Video Coding% c7 ?6 W8 }* R3 Q% D
      Duration : 1mn 55s
6 C1 O  n( G/ w      Bit rate : 8 002 Kbps
8 r1 {& A1 I; @" q" U$ x  @: S      Width : 1 920 pixels2 h" ^6 O; F' ~. y! n7 i
      Height : 1 080 pixels7 h6 M$ m5 f- G0 m6 Y" k9 s: D
      Display aspect ratio : 16:98 f2 w9 S% L* y
      Frame rate mode : Constant
! A3 K5 y0 b8 x; e8 |      Frame rate : 30.000 fps
' Y& h; G8 D' n( S, N) B/ a: j. Z8 K      Color space : YUV8 W; r! T  l+ \- n) u/ a1 ?# y
      Chroma subsampling : 4:2:0; y' B, q9 i9 R3 y1 P! ?
      Bit depth : 8 bits
) v3 Z+ o5 \, i) e2 A( T      Scan type : Progressive* _. e$ V; K4 W7 P
      Bits/(Pixel*Frame) : 0.129
# d! g5 h, h: K$ V" i      Stream size : 110 MiB (91%)# I1 w2 T' A" L
      Language : English
( c* L) u' ^: c4 D+ d* e# ^      Encoded date : UTC 1970-01-01 00:00:00$ C8 x: i& v3 ^* |* M1 m
      Tagged date : UTC 1970-01-01 00:00:00$ h4 m4 W. O" s2 k
   Audio #2
4 Y0 S  q6 T0 i# W9 V$ B      ID : 2% p* n# L, S" x2 W$ t, _
      Format : AC-3' m5 G; l; w* ?, n
      Format/Info : Audio Coding 33 K: I- W5 T# i7 q
      Mode extension : CM (complete main)
$ ?' d9 [8 E- n; @) D0 y      Format settings, Endianness : Big
! }: ~8 e) F% d) h' x      Codec ID : ac-3
0 u! l0 |# y) E/ u9 C8 {- R* t+ E- e      Duration : 1mn 55s
* b9 k2 T, _! Y7 o* {, E      Source duration : 1mn 55s3 M; \( d9 i8 e. x! K7 s. U
      Bit rate mode : Constant, B2 Q; H% T5 X" P
      Bit rate : 384 Kbps
: [8 b- |# O9 N, q  j  ~0 c      Channel(s) : 6 channels
+ |# s, X; ~! W# |8 W4 Y; O      Channel positions : Front: L C R, Side: L R, LFE
# y# e7 F5 T: U# I1 t' s      Sampling rate : 48.0 KHz- j/ @+ ]5 ]% t1 j9 f
      Bit depth : 16 bits2 V1 R0 Z4 C( L3 O* g9 Q8 _
      Compression mode : Lossy5 M5 ~# S# U3 M1 o3 F
      Stream size : 5.30 MiB (4%)
$ S6 s3 y3 A& n& i8 z6 ]      Source stream size : 5.30 MiB (4%)* }# N' q: \4 V5 M* I
      Language : English
  W) c1 E4 t+ t+ R4 L0 j      Encoded date : UTC 1970-01-01 00:00:00
9 p( r1 ]8 e1 v9 T* _1 o$ z, ^      Tagged date : UTC 1970-01-01 00:00:00
$ m) e3 W, T0 O1 {7 I8 v      mdhd_Duration : 115741
1 j5 ^* C2 b) ^" Q0 j5 P, K3 I9 s   Audio #3
6 |& e2 k7 Q% j1 A  @5 e0 Q' q      ID : 34 g. u. F/ c, B) e% k7 U- m
      Format : AC-3
! m- a6 e7 H7 \$ n1 k      Format/Info : Audio Coding 3% w  N5 R8 p' X; i& R' G1 l
      Mode extension : CM (complete main)
; x2 l% e; t) E4 H      Format settings, Endianness : Big
- q/ T0 b) W3 \# \      Codec ID : ac-3" N6 d7 X2 G4 c
      Duration : 1mn 55s
" D( m9 O3 S0 Q. \2 d      Source duration : 1mn 55s% k* L. J& e% E9 G0 L
      Bit rate mode : Constant! C) f# d# {; E: Z, J
      Bit rate : 384 Kbps
+ B) P' e, l# @! T$ z( W! \      Channel(s) : 6 channels2 v" F- D' H/ x# ~  v
      Channel positions : Front: L C R, Side: L R, LFE
6 E4 y) v9 \: @/ K  |      Sampling rate : 48.0 KHz0 Z, c8 a$ s& b5 m
      Bit depth : 16 bits
$ F9 \6 K' P/ G( E# h      Compression mode : Lossy' j! Q2 Z# [( q" R* l. t1 c& k
      Stream size : 5.30 MiB (4%)( o1 Q2 d- _4 @, R4 a8 w
      Source stream size : 5.30 MiB (4%)
- z, S/ J: O4 ^      Language : English  G8 j4 o: x, {& M
      Encoded date : UTC 1970-01-01 00:00:00
! @( x; _0 d0 E' \5 n      Tagged date : UTC 1970-01-01 00:00:00
* N/ y. z0 }8 f' Q      mdhd_Duration : 115741$ j% L+ H; I( @- _4 h

+ c% A; m$ R# b2 P9 a1 N1 } 1.JPG ; C( p, P. m9 E# C
2.JPG
; s+ X+ g  q! m 3.JPG ' q/ d0 z; n1 G/ V5 d( t
4.JPG " t1 f% L7 X  T7 l1 [7 t
5.JPG 4 s$ q9 R, F. @3 q: H2 g  l5 b& [

2 W; c( i3 a' z; L2 m链接:http://pan.baidu.com/s/1mhYyLGO4 R6 u* {- K3 i# L& w$ O$ m( |
密码:lz1k
發表於 2016-12-17 00:23:06 | 顯示全部樓層
蠻喜歡這首歌的
) e& e  Q# O9 a1 h# \9 H: [( t3 r周爺電影中都會有首歌7 E  q/ D) e% d% P4 [
這首是其中我蠻喜歡的......又讓我想起大話西遊的"一生所愛"
- h$ F3 C. x3 [% q來去再聽歌
* W' F7 ?( }7 t3 U% v感謝分享+ p9 V* d4 ?& `5 k  d; ?: g6 L5 ?
回覆 支持 反對

使用道具 舉報

發表於 2016-12-20 22:32:45 | 顯示全部樓層
很喜歡的電影 也是很喜歡的歌 感謝版大辛苦分享
回覆 支持 反對

使用道具 舉報

發表於 2016-12-27 22:53:26 | 顯示全部樓層
楼主厉害 这个居然都有剪辑!
回覆 支持 反對

使用道具 舉報

發表於 2016-12-28 13:43:41 | 顯示全部樓層
谢谢分享
回覆 支持 反對

使用道具 舉報

發表於 2017-1-2 09:13:33 | 顯示全部樓層
哇 这个绝对经典呀+ O) E; R; \  \, |$ P$ l
我来看看 !!
回覆 支持 反對

使用道具 舉報

發表於 2017-1-30 22:06:15 | 顯示全部樓層
经典啊~张学友的歌一直很好听1 u4 x& g/ @7 x  K. T% m  z
来看看 !!, _5 p/ L8 f+ U; R' V4 Q* d
谢谢
回覆 支持 反對

使用道具 舉報

發表於 2017-3-18 07:07:52 | 顯示全部樓層
秋意濃的粵語版 好聽的歌永不會被遺忘
回覆 支持 反對

使用道具 舉報

發表於 5 天前 | 顯示全部樓層

2 {4 t: R" p5 d) K$ W6 w5 u) G很喜歡的電影 也是很喜歡的歌 感謝版大辛苦分享
回覆 支持 反對

使用道具 舉報

您需要登錄後才可以回文 登錄 | 註冊

本版積分規則

熱門推薦

頻響之惑--秦朝 BQ3115D
頻響之惑--秦朝 BQ3115D
Q:從秦朝音響論壇(http://www.ycqin.com/thread-1153-1-1.html)
Epson TW7300 vs Optoma UHD 65
Epson TW7300 vs Optoma U
我很訝異~ DLP顏色經過調整直逼LCD~ LCD的銳利度直逼DLP~ Eps
視聽室改造(聲學設計>>增設吸音器)
視聽室改造(聲學設計>>增
視聽室完成已經有六七年了,當初是diy自己搞的 那時候也沒有太多
B&O PLAY推出可攜式揚聲器Beoplay P6
B&O PLAY推出可攜式揚聲器
結合「充沛力量,輕鬆便攜」特色 B&O PLAY宣布可攜式藍牙揚聲器
Sony 春季耳機新品登台
Sony 春季耳機新品登台
高解析音質/無線降噪/運動耳機齊發 打造感動聲活 Sony在台推出

聯絡我們| 問題反映| 小黑屋| 手機版| Archiver|  本網站特別聘請 蔡家豪律師 為本站法律顧問

快速回覆 返回頂部 返回列表