查看: 738|回覆: 8
收起左側

[華語TV] 张学友 - 李香兰《国产凌凌漆》插曲高清剪辑(国粤双音轨)[MP4/1080P/124M]

[複製連結]
發表於 2016-12-16 23:34:00 | 顯示全部樓層 |閱讀模式

馬上註冊,結交更多好友,享用更多功能,讓你輕鬆玩轉社區。

您需要 登錄 才可以下載或查看,沒有帳號?註冊

x
0.jpg ' d0 ^; q+ u  l! _' a' H
0 |- K+ |0 R9 I0 ?- q! i
国产凌凌漆 这个片段里的星爷真是完美演绎了风流倜傥的典范啊,而今青春风采桀骜不再,再次重温,却多了几分感慨和缅怀...
: P& @. i- y% `: N' A$ ^
& l, O5 r" T7 p/ i7 E   General4 k7 y- F3 F( K7 g
      Complete name : 张学友 - 李香兰《国产凌凌漆》插曲高清剪辑(国粤双音轨).mp4! R& N% Q! N' T
      Format : MPEG-4
# A, ~, _/ H% h: w! H      Format profile : Base Media
: W% W( N5 @' e+ n- }; Q# K      Codec ID : isom0 u1 e" X* A+ j" J! N# C
      File size : 121 MiB5 ^, W' E0 h1 i
      Duration : 1mn 55s
4 O3 C2 j5 g5 D7 R4 M! A4 p/ y      Overall bit rate : 8 778 Kbps
% q1 U* ^, M. g      Encoded date : UTC 1970-01-01 00:00:00
/ a. A  O5 l6 ]+ z7 a      Tagged date : UTC 1970-01-01 00:00:00
( D  z; T0 a8 H$ `0 [   Video #1$ ~7 k( d7 q5 Y
      ID : 1
( A$ W$ z7 E0 ^; b4 S      Format : AVC
8 _5 Z  E5 s# t$ z9 L- F5 m      Format/Info : Advanced Video Codec5 _5 ]4 o% @$ x2 N7 d
      Format profile : High@L5
% e9 r, P9 K: K& \) x0 x* z5 ?1 S      Format settings, CABAC : Yes
0 R  ^' S! Z- n% A9 _' c      Format settings, ReFrames : 8 frames
% {) Z, h% p7 ^- Q# y; Q( P      Codec ID : avc1
5 r7 V9 s; p8 A      Codec ID/Info : Advanced Video Coding
( V! H6 J4 v0 k0 O* R" n      Duration : 1mn 55s' C3 E" C9 V- A. U4 s6 I2 E' W5 Y
      Bit rate : 8 002 Kbps
$ ]/ |% {  [9 W: F% X# _8 g      Width : 1 920 pixels
$ n) n) e  L% d. f) x" j. F8 b      Height : 1 080 pixels
. D/ f$ u7 b  w; D! ?+ O" n' z      Display aspect ratio : 16:94 v, b2 s# Q( [( J
      Frame rate mode : Constant- ]! E% f; E* f2 J8 p' @" O% Q
      Frame rate : 30.000 fps+ `. O5 B* B" |
      Color space : YUV" ?& P1 P; I+ [, r0 r, Y5 m
      Chroma subsampling : 4:2:0
- }" z* I& m  C* T+ u1 |      Bit depth : 8 bits; n6 T# `  b5 t; X+ D( T3 K
      Scan type : Progressive
' x  s0 ^5 r2 ?1 \; e; f0 v: p9 H      Bits/(Pixel*Frame) : 0.129
8 ~. ~2 F+ D" z- R/ [: W      Stream size : 110 MiB (91%)
! G% C4 p# F& ^6 {" a- q      Language : English$ H) y6 N) F* o' i; |
      Encoded date : UTC 1970-01-01 00:00:00/ c/ r2 C- e7 ]7 V' P! _
      Tagged date : UTC 1970-01-01 00:00:00) X1 p3 U2 N% g0 M1 x
   Audio #27 Q$ \0 T5 }* _/ P$ {
      ID : 2
6 z% b1 _+ f3 g0 s9 j' b/ }( u7 ?      Format : AC-3* f% s# E& z/ j, t4 ~
      Format/Info : Audio Coding 3
( s: Q! B' p' F7 h: y8 c+ b, r+ ], G      Mode extension : CM (complete main): ?9 e; j. e6 {7 W, @) J( e
      Format settings, Endianness : Big" L% ?" V" j- |4 |. i
      Codec ID : ac-3* T/ j  U/ }! D- h& [0 q1 u/ F$ ^5 ~2 N
      Duration : 1mn 55s
5 ~: S' Z6 b$ ^6 A7 m+ s% W      Source duration : 1mn 55s+ ]) j# P; ]& m" T* i  V
      Bit rate mode : Constant
" b4 z+ N+ m& R/ r) j: Q& b      Bit rate : 384 Kbps
8 \  w5 j4 r$ ~7 o      Channel(s) : 6 channels
* e  F. V( d* V4 L" @      Channel positions : Front: L C R, Side: L R, LFE/ ^3 g" i0 w" d
      Sampling rate : 48.0 KHz4 _& N1 v& X5 U8 m( x) Y& e
      Bit depth : 16 bits
+ }. u+ j/ n( z+ O. v' A# P) B9 ]      Compression mode : Lossy
8 M2 _$ K% Y$ M0 [3 `6 B4 t7 ]$ O      Stream size : 5.30 MiB (4%)3 h! x0 T% l" G& ?: N) L7 Y
      Source stream size : 5.30 MiB (4%)
& ~' Q- \: f2 P) L      Language : English# b/ {$ M7 _/ J; F
      Encoded date : UTC 1970-01-01 00:00:00
1 y3 D- r( @! K! s; ]      Tagged date : UTC 1970-01-01 00:00:00
6 H0 |) p: i# y1 z      mdhd_Duration : 1157416 S" d  V0 Y4 c) T7 O
   Audio #3: ]& f, o! m0 X! H6 M
      ID : 33 M/ A) V% ~7 Z; ^2 n
      Format : AC-3
* Y. a7 C9 O7 B      Format/Info : Audio Coding 3
5 S% |# ?& `9 b      Mode extension : CM (complete main)
0 e; ~) u% G* r! y; O      Format settings, Endianness : Big
1 n. A% W2 e! v5 K- u      Codec ID : ac-3* f; \- Q: b. W
      Duration : 1mn 55s
+ v9 M" I/ S8 z/ K1 Z      Source duration : 1mn 55s
% ]2 w% |# D3 s. U      Bit rate mode : Constant
1 ^% t$ b+ Z/ u9 s# B" Y  g      Bit rate : 384 Kbps
# E6 R5 a' q, y6 N      Channel(s) : 6 channels
3 ~2 ]; n! k. m; W; u$ U      Channel positions : Front: L C R, Side: L R, LFE; j* W3 n+ @) B
      Sampling rate : 48.0 KHz
  g. J4 V# b4 c/ l      Bit depth : 16 bits
: T3 j/ a5 Y" v8 n1 d* F4 }      Compression mode : Lossy- z/ O$ `, ?+ Z; d
      Stream size : 5.30 MiB (4%)
; s- o# r% I$ U' B1 k      Source stream size : 5.30 MiB (4%)
- e1 s6 i: T% z3 x0 H8 p7 E1 @      Language : English# [$ j# W7 |$ F; ~4 r& Y( D- X
      Encoded date : UTC 1970-01-01 00:00:00' V7 E3 n. e+ C4 h, \) O( e1 h+ \: f
      Tagged date : UTC 1970-01-01 00:00:00
' _$ r2 e3 N0 p4 }5 S( Z  R5 D      mdhd_Duration : 115741
: t( o* o+ \% V7 K/ [+ H+ w! H( i: F7 k( i2 F  A; L$ O
1.JPG
& ]* [% E4 }6 G, a 2.JPG
4 q, h( P1 a- Y* I 3.JPG
4 ]9 W7 _) I' p$ @8 I8 c1 I- _% h 4.JPG
% H' f$ r) e) E$ G/ z 5.JPG
, l% v4 j+ Z/ w; y- I( a, O" j. ^+ U5 |- r
链接:http://pan.baidu.com/s/1mhYyLGO$ L% O, G3 ]9 J* [, \9 E
密码:lz1k
發表於 2016-12-17 00:23:06 | 顯示全部樓層
蠻喜歡這首歌的
7 y9 H. t4 b) e) X) S( g5 ~+ P周爺電影中都會有首歌; I# l2 K9 {$ f; N3 ?5 O
這首是其中我蠻喜歡的......又讓我想起大話西遊的"一生所愛"
" e" c2 r8 ?& K0 t來去再聽歌5 }8 m! e: `# y1 [6 V% {
感謝分享  c; `0 P/ l& u6 I( C. H
回覆 支持 反對

使用道具 檢舉

發表於 2016-12-20 22:32:45 | 顯示全部樓層
很喜歡的電影 也是很喜歡的歌 感謝版大辛苦分享
回覆 支持 反對

使用道具 檢舉

發表於 2016-12-27 22:53:26 | 顯示全部樓層
楼主厉害 这个居然都有剪辑!
回覆 支持 反對

使用道具 檢舉

發表於 2016-12-28 13:43:41 | 顯示全部樓層
谢谢分享
回覆 支持 反對

使用道具 檢舉

發表於 2017-1-2 09:13:33 | 顯示全部樓層
哇 这个绝对经典呀& V* I0 K- l  m9 S5 A5 h
我来看看 !!
回覆 支持 反對

使用道具 檢舉

發表於 2017-1-30 22:06:15 | 顯示全部樓層
经典啊~张学友的歌一直很好听
  {8 M! @/ a3 x4 |' g' I来看看 !!, z! I$ A! k0 s* K' i
谢谢
回覆 支持 反對

使用道具 檢舉

發表於 2017-3-18 07:07:52 | 顯示全部樓層
秋意濃的粵語版 好聽的歌永不會被遺忘
回覆 支持 反對

使用道具 檢舉

發表於 2018-4-16 03:31:00 | 顯示全部樓層

) x2 _" z. W( U: S5 S很喜歡的電影 也是很喜歡的歌 感謝版大辛苦分享
回覆 支持 反對

使用道具 檢舉

您需要登錄後才可以回文 登錄 | 註冊

本版積分規則

熱門推薦

給自已一個幸福甜蜜的家【家訪中壢阿國兄part2】
給自已一個幸福甜蜜的家【
本文章最後由 小許 於 2016-10-23 22:19 編輯 其實這本篇文章
視聽室改造(聲學設計>>增設吸音器)20180621更新
視聽室改造(聲學設計>>增
視聽室完成已經有六七年了,當初是diy自己搞的 那時候也沒有太多
退伍後的人生第一套家庭劇院
退伍後的人生第一套家庭劇
劇院 我家是Klipsch RF-35主聲道 Klipsch RC35中置 Klipsch RS-5
JVC跌破眼睛重返DLP陣營發表4K DLP新投影機
JVC跌破眼睛重返DLP陣營發
向來以LCOS反射式液晶與超高對比聞名業界與發燒圈的JVC,近日突
家庭結構化佈線,影音網路化圖文介紹
家庭結構化佈線,影音網路
本文章最後由 chaokai 於 2011-5-30 07:24 編輯 這主題我在其

聯絡我們| 問題反映| 小黑屋| 手機版| Archiver|  本網站特別聘請 蔡家豪律師 為本站法律顧問

快速回覆 返回頂部 返回列表