查看: 1565|回覆: 8
收起左側

[4KUHD] [8K超清MV] 江南Style.16in1.HEVC.65Mbps.60fps_10bit[MKV/1.7G]

[複製連結]

發表於 2018-10-31 08:29:13 | 顯示全部樓層 |閱讀模式

馬上註冊,結交更多好友,享用更多功能,讓你輕鬆玩轉社區。

您需要 登錄 才可以下載或查看,沒有帳號?註冊

x
本帖最後由 刘302 於 2018-11-2 06:37 PM 編輯 ' L2 S1 s: N( q

7 C' h! I2 R5 l3 u. n+ t: i+ S7 o 江南Style_1.jpg + F( I# s6 R/ N  U3 @

/ {; h6 W- R& e* X/ ?4 U 江南Style_2.jpg ; z- v9 V8 w$ {; Y# v3 t% n% K1 S2 S; M

0 B! ]  z  Y+ ?8 I/ @ 江南Style_3.jpg
+ n5 A- \9 {, Y  H
+ ~: Q( w: r- `% G+ z3 i 江南Style_4.jpg
- `4 f5 R9 X  ~4 X9 M% P/ D0 L- K! ?1 ~2 ?* I2 H) J, V6 ?6 x
百度云盘下载:
, k' U: `* p. L; ?, B% g* n链接: https://pan.baidu.com/s/1ggAo0qNGU2TaLZAnHSpY4w+ g& l( f/ A- J2 J5 f2 ~
提取码: jsam
. g+ F6 `! S5 t7 A& n( G; K: }- ]) `+ o% Q5 ?5 l
PS: 英伟达 GTX 1060 以上显卡硬解可以60帧满帧播放,试机验机烤机良品。7 Z8 h7 w  a% w" X3 R+ U8 V% _6 d
     99.9%的电脑不能流畅播放的H.264版本在此:" j8 X7 C( h1 i. i0 P: t
     https://www.hd.club.tw/forum.php?mod=viewthread&tid=191128&extra=page%3D1%26filter%3Dtypeid%26typeid%3D216
* L* n! s  o1 k; r. y$ L8 H* l1 T, C
5 M1 C$ {/ d1 @" {General2 Y1 D  ~+ B. @4 q. o+ g+ q' k) a1 K
Unique ID                      : 129770745003807216888477609907494280483 (0x61A0EFB5FFA002662D96097426475D23)( T$ m6 C4 l$ W$ p. {
Complete name                  : [8K超清MV] 江南Style.16in1.HEVC.65Mbps.60fps_10bit.mkv6 `7 G0 e4 `% r: J
Format                         : Matroska$ z8 C* }% ~$ V+ ^1 n# P
Format version                 : Version 4 / Version 2) ~, ^3 e- }, a/ c" V( ^# r( {# l# k
File size                      : 1.71 GiB( D, }5 U( d" l: y8 b- a
Duration                       : 3 min 34 s
+ y9 U9 C, X: w2 pOverall bit rate mode          : Variable
# q7 z1 a; h% \Overall bit rate               : 68.2 Mb/s
* X8 I  u/ B1 b% AEncoded date                   : UTC 2018-10-30 22:45:58+ G8 _" i7 Q5 K; P
Writing application            : mkvmerge v28.0.0 ('Voice In My Head') 64-bit
' z1 I8 I/ k, f7 d, E, B# H3 ~* ?Writing library                : libebml v1.3.6 + libmatroska v1.4.9
6 f# V; E0 u8 eEncoding Gui                   : Hybrid 2018.10.21.1
# O3 t) A6 ?' q6 `1 ?; O' [( A  f9 O7 @
Video; L/ k' |0 A# r& y3 w! ]5 A0 A& X
ID                             : 1
2 }& f( d1 }0 B% `Format                         : HEVC
- n# m. ?0 c- t5 l. Y6 t2 TFormat/Info                    : High Efficiency Video Coding
/ w' _: s9 n" x' v- U/ E# VFormat profile                 : Main 10@L6.1@Main
& ]4 ~5 V5 s4 y8 w+ s' h, sCodec ID                       : V_MPEGH/ISO/HEVC1 C, ~! P  q6 O6 }
Duration                       : 3 min 34 s5 b% f9 A1 g- m$ N
Bit rate                       : 61.1 Mb/s1 `6 n. @; Q( n& c. o
Width                          : 7 680 pixels- A, h7 L) h: L1 O
Height                         : 4 320 pixels
* h" J( U) d. F4 A6 Y+ ADisplay aspect ratio           : 16:9- X3 X: m2 d1 @2 n4 M( X
Frame rate mode                : Constant
. Z) @2 ?/ X% ^  @Frame rate                     : 59.940 (60000/1001) FPS
1 v  W' W3 f$ E8 ]( x$ ]; PColor space                    : YUV
9 p7 K; b* P' ZChroma subsampling             : 4:2:0+ h. \3 D+ I, P& g2 T6 b, K
Bit depth                      : 10 bits
4 J/ Q* F* d+ zBits/(Pixel*Frame)             : 0.031
  V. k) ?' E% [  jStream size                    : 1.53 GiB (89%)- |7 i4 D  j- m# e8 s" b2 k
Writing library                : x265 2.9+2-7e978ed93d60:[Windows][GCC 8.2.0][64 bit] 10bit
0 a1 b# k! a2 Q0 CEncoding settings              : cpuid=1111039 / frame-threads=4 / numa-pools=16 / wpp / no-pmode / no-pme / no-psnr / no-ssim / log-level=2 / input-csp=1 / input-res=7680x4320 / interlace=0 Default                        : Yes
: T; O; B: G1 Q! u+ x. `: c3 QForced                         : Yes
: x9 w6 \5 q" E- vColor range                    : Limited* [8 ]& y6 i4 T0 P% N
Matrix coefficients            : BT.709+ j6 D1 B0 ~' X9 u" j
3 w- B/ {1 Y; j# a' V
Audio #1
( n, T' i/ Z4 }% |; SID                             : 2
/ n. a. h8 O3 i1 w! }% l5 MFormat                         : FLAC
, z5 Z! J" \, P5 [Format/Info                    : Free Lossless Audio Codec
% U$ m0 N; y2 n, n' t$ h! X3 ECodec ID                       : A_FLAC
6 c) p; {% c7 v7 f4 qDuration                       : 3 min 34 s
4 Z6 w0 C; A& J8 Y( kBit rate mode                  : Variable, c; @+ r. X. C0 F5 N, s5 R
Bit rate                       : 1 650 kb/s
6 B% W/ K+ ^' V6 P6 G! AChannel(s)                     : 2 channels' u# b- e* S% m6 i8 |
Channel positions              : Front: L R
+ d5 w; U0 G  L# |8 ISampling rate                  : 44.1 kHz
7 o; i' q7 k- ]. M! a+ KFrame rate                     : 10.767 FPS (4096 SPF)& R" w, F! J8 f5 d  q
Bit depth                      : 24 bits5 e6 ]8 |4 ^) O5 J& s8 {4 ~
Delay relative to video        : 89 ms
1 m. J7 O- D. `+ m& Z0 e( XStream size                    : 42.2 MiB (2%)
+ h7 \4 d1 m! t6 e- B; vTitle                          : clip01-mv& C0 d6 P2 e8 k( |
Writing library                : libFLAC 1.2.1 (UTC 2007-09-17)
( K: D- A8 F! J1 Y* z$ TDefault                        : Yes
( u' A6 P6 `5 h/ ]" dForced                         : No9 j  S4 P$ `4 D  }# _2 d+ N0 D/ ^

1 g9 M2 j  N( H$ Q: }$ rAudio #2% ]  h7 K; q2 P  X* ~0 B% r: S6 s
ID                             : 3; X% y4 f3 ], v4 e& s- P# m; y
Format                         : AC-3
3 b' r- \; Z5 J8 w/ \# SFormat/Info                    : Audio Coding 30 ]) Y- Y( _' ^: o
Codec ID                       : A_AC3
( d' Y: W  Z8 D6 y- W6 TDuration                       : 3 min 34 s
  v2 c9 ^3 E0 g5 s! bBit rate mode                  : Constant
' N( E/ [0 [2 GBit rate                       : 384 kb/s
2 k0 T7 D. m- x: c. wChannel(s)                     : 2 channels" T; V! ^1 x* T& b% E3 N$ h/ {
Channel positions              : Front: L R6 z$ _7 c2 p) H
Sampling rate                  : 48.0 kHz
! G! @; K5 j) `Frame rate                     : 31.250 FPS (1536 SPF)
2 o  A6 _; W; m; lBit depth                      : 16 bits0 F4 n( y* ^$ V$ G; \9 I$ u4 g& H
Compression mode               : Lossy" x) G& k1 `' T- p3 k
Delay relative to video        : 12 ms2 ]6 h9 ?' @' k$ a  H
Stream size                    : 9.83 MiB (1%)
/ }0 `: [7 e% i# HTitle                          : clip02-0715
$ g/ X4 e$ g( U9 T/ F9 |Service kind                   : Complete Main
* `# p- z9 }) z1 F* C) @& _* B! UDefault                        : No6 ]. w" s% s6 D/ ?. n2 J5 T
Forced                         : No
4 P! c& i& G+ m! G  x
- I! [- Q% M9 [9 S! b# }# IAudio #3  J8 n( v' F2 T& o0 r
ID                             : 44 k- [3 r/ j' W6 p) C2 a- h6 H
Format                         : AC-3/ Z7 _) C# c: L
Format/Info                    : Audio Coding 3
& g0 X# M% i$ X: m* c' p2 H; ^Codec ID                       : A_AC3, E# d8 v1 X" p% W4 F% G+ p2 d
Duration                       : 3 min 34 s; x; W5 Y9 x! D. U4 W; y
Bit rate mode                  : Constant
" d, t7 v/ \+ x2 [Bit rate                       : 384 kb/s
% [0 w3 F. K5 D6 w3 CChannel(s)                     : 2 channels' ^* _: k6 v/ z$ K
Channel positions              : Front: L R* y) i/ a: q2 w  ]4 s" ~7 c
Sampling rate                  : 48.0 kHz
1 P5 P. ^4 Z4 x% h! E; UFrame rate                     : 31.250 FPS (1536 SPF)
) y" s4 X; {7 e4 V& t$ ?7 e- A9 {# yBit depth                      : 16 bits. p9 f. H1 h- [% ^5 d5 j* s6 k
Compression mode               : Lossy
% v+ F! N3 [" b- eDelay relative to video        : 5 ms/ C# G4 H6 r$ T
Stream size                    : 9.83 MiB (1%)+ z' I+ m+ E3 E) A
Title                          : clip03-07228 ~# m/ A( T6 ]2 D
Service kind                   : Complete Main  V! b" A5 E' `" q  Q
Default                        : No
7 C' G8 N8 f5 I1 @3 D' ?Forced                         : No
3 X) \' n1 ^0 D, m/ i; Q  k$ @; E4 m  j6 x+ h2 Y8 n
Audio #4
! N7 ~9 ~) o. n  VID                             : 5
) o+ D2 I, A7 T" A% IFormat                         : AC-3
, t. K) O; j- h/ O* D6 ?$ N9 y0 EFormat/Info                    : Audio Coding 3
$ [1 P" k# c, q4 w- c% fCodec ID                       : A_AC3
4 s' e( O; y+ r" p4 z: g( D! FDuration                       : 3 min 34 s
- X, F+ L1 D9 U/ `Bit rate mode                  : Constant
! T' |7 N9 V/ p7 j; m2 eBit rate                       : 384 kb/s
$ u, o2 d4 j- L) K- dChannel(s)                     : 2 channels
$ w0 v8 d; O7 H+ D- R" X) T7 PChannel positions              : Front: L R  Z6 D* h$ M3 U( H  _
Sampling rate                  : 48.0 kHz
' ?# x2 q1 P% V* r) [5 cFrame rate                     : 31.250 FPS (1536 SPF)0 P1 o4 j2 i" I+ a# u4 `9 a
Bit depth                      : 16 bits
( Z$ R4 x8 Z: _Compression mode               : Lossy1 g; s0 |7 J; i' k
Delay relative to video        : 19 ms
1 h1 |" o; T+ s3 x0 T9 IStream size                    : 9.83 MiB (1%)
# U* A4 I3 m+ Y2 h6 A7 OTitle                          : clip04-0729/ G; \  m$ D: x( E3 O
Service kind                   : Complete Main& z- T7 ?+ |/ t; z* K' E
Default                        : No1 F% g9 X- s$ F* k9 Y3 T
Forced                         : No- q" d& w: l9 W# V$ r+ _9 j* @0 p
) \7 s1 ~+ Q6 l# X
Audio #5
8 k: j4 P  e* f& h/ h$ PID                             : 6: }7 Q2 q/ I3 T" u8 ^! X
Format                         : AC-31 F9 a3 o2 a3 M( b- r
Format/Info                    : Audio Coding 3
- z0 `- y  i4 P! k; w/ ICodec ID                       : A_AC3
& z  d" K0 S2 o5 h8 l2 O5 a) \3 QDuration                       : 3 min 34 s2 J4 m$ ~3 m. w$ v0 N
Bit rate mode                  : Constant
" G% y* i/ Y" a& h* ]% MBit rate                       : 384 kb/s+ O+ Z5 s$ t1 B4 H& z5 J) |
Channel(s)                     : 2 channels
& \. Q; y+ v  _1 s7 ?: X5 m: B7 @Channel positions              : Front: L R
: p  ]# o  g" F7 r; `Sampling rate                  : 48.0 kHz
9 `3 f8 m. x1 G) y) R$ oFrame rate                     : 31.250 FPS (1536 SPF)$ {" P: m8 {, E: E
Bit depth                      : 16 bits9 S& d4 c3 O0 m# Z" h, C
Compression mode               : Lossy: ~  g$ d7 `8 v: U  A
Delay relative to video        : 19 ms4 s% e) x' B' O+ {2 ~" @2 I/ g
Stream size                    : 9.83 MiB (1%)
6 G$ i; I. K: x% D( w& |5 V  x9 ~Title                          : clip05-08057 A, |9 ?, c7 P: s  l+ w
Service kind                   : Complete Main) w' r+ f  g  T' W; E8 N, ?- e9 U
Default                        : No
+ G  S, w. L0 Y% e7 ^Forced                         : No6 A  g3 n7 k2 f* r% ~
& a4 c2 G. b( f- U5 {
Audio #6
0 Z# s2 h3 ~8 o# J6 ZID                             : 7
6 z5 F/ |6 {# p/ n0 fFormat                         : AC-3
( D: O' b) v) J# d# EFormat/Info                    : Audio Coding 3
. S0 w: a1 f% W/ aCodec ID                       : A_AC3
: R+ ]8 J/ F0 RDuration                       : 3 min 34 s
: e2 @/ V3 l! R' SBit rate mode                  : Constant
$ V9 f: v( j5 A2 P) n$ s: y! n, zBit rate                       : 384 kb/s& M- J) `8 ?' a8 E9 u2 _+ R
Channel(s)                     : 2 channels4 d, N4 P# `) ?; e- b2 H8 C  o7 l
Channel positions              : Front: L R0 \7 g' j* e/ W5 D) t: t- I4 ]
Sampling rate                  : 48.0 kHz4 \  L4 w2 G4 U1 @; @. |
Frame rate                     : 31.250 FPS (1536 SPF)
) B( q) c# P3 Q+ U' l2 fBit depth                      : 16 bits8 J4 v+ ]% @7 h  y, E8 U  l$ ?
Compression mode               : Lossy1 J2 @& z: V9 n1 h: v
Delay relative to video        : 21 ms
5 Y4 @6 m- I" [: S9 YStream size                    : 9.83 MiB (1%): d# M6 E& M, R/ h# E
Title                          : clip06-0812
$ o0 ~  H7 m1 D; _( i$ w& UService kind                   : Complete Main
) a" Q4 N6 _0 IDefault                        : No0 i1 j& z3 {& u3 T" r) o+ i% N" Q
Forced                         : No
, m0 v8 x) }9 T& E9 u! {6 j- |0 ]# b
- T" F* {+ y/ S4 A" m+ [7 u$ yAudio #7
; ], ]- C8 C3 _$ ]- l; ^2 |5 H) \ID                             : 8
( J7 u: `0 m" c3 |Format                         : AC-34 q; N* |2 F+ E; N: _. @. C' U
Format/Info                    : Audio Coding 3! N5 b" B# B" Y5 X
Codec ID                       : A_AC3
/ g5 \2 t2 p/ |Duration                       : 3 min 34 s
% W' D8 X) ]2 S2 rBit rate mode                  : Constant
9 q+ i( G* Z' S1 }! qBit rate                       : 384 kb/s
  Z- p. C$ a. t( ~6 A# j" uChannel(s)                     : 2 channels
4 g# z/ m0 C8 z8 Q4 F! G1 VChannel positions              : Front: L R1 b1 R% K, l4 d; G  o9 ]
Sampling rate                  : 48.0 kHz' w! b5 q$ a/ Z. ^/ I& o; E
Frame rate                     : 31.250 FPS (1536 SPF)
9 W/ u2 c' P7 r( E( \5 u3 }* G) \Bit depth                      : 16 bits
7 Y$ p9 a! W% x% V% Q& M* T# vCompression mode               : Lossy
" c" @& S7 w; Q& a* U/ {# u. KDelay relative to video        : 6 ms; ?- o1 G( N9 g0 P3 x6 U; ~% |9 J: b
Stream size                    : 9.83 MiB (1%)! n) ]! Q3 w( m% l5 D4 @/ \
Title                          : clip07-0819
! F1 |) D. I4 A/ o  JService kind                   : Complete Main( e+ C3 [* `! d: M( S( ^7 C5 z3 e
Default                        : No4 J0 J8 I( M$ V, U
Forced                         : No% v& U8 ^! d* H+ `
8 y+ ^! U. O/ b! U3 X" h5 ^
Audio #8
3 Y5 h) Z3 J1 `+ N- O( q: G! M/ O: rID                             : 9
, K+ M# `& q$ {/ QFormat                         : AC-3. |3 P5 {! _0 E2 m! x
Format/Info                    : Audio Coding 3& q, q/ x, [. y
Codec ID                       : A_AC3
) c& }- b/ H' Y+ ^6 `% }Duration                       : 3 min 34 s
" h' i4 C4 K/ R1 X& z0 OBit rate mode                  : Constant
9 F6 Q" j! f0 g- z1 VBit rate                       : 384 kb/s& j, i  W( @# c) d2 [' i
Channel(s)                     : 2 channels
1 Z1 b' y% ^7 S  p* I5 n1 L1 Z8 KChannel positions              : Front: L R: j% L$ s% E/ C6 j
Sampling rate                  : 48.0 kHz; l6 J& ?/ `6 Z. @( O- g
Frame rate                     : 31.250 FPS (1536 SPF)
( `5 T2 T) l4 F6 t5 ^# `" hBit depth                      : 16 bits
: U+ b5 E# K2 q1 lCompression mode               : Lossy
$ p' l. R5 A# n! g% kDelay relative to video        : 6 ms* f! Y) k* U! \% {4 ^9 R
Stream size                    : 9.83 MiB (1%), ?  z7 m. v) J
Title                          : clip08-08269 ^/ q/ L' f9 B! m- ]% V# A
Service kind                   : Complete Main
& k& ~" H5 t. x; E' `Default                        : No
1 g. @( [& y; sForced                         : No+ J4 C  R$ X6 Z# k: @

7 R  H9 k- v5 HAudio #9
( @) j6 j% _/ \7 a7 FID                             : 10
0 M. `! _$ U- |: XFormat                         : AC-3$ ?% Q, A! u+ S/ u$ ?
Format/Info                    : Audio Coding 3
; k% O  k% u9 X  rCodec ID                       : A_AC3
7 G  Z3 O1 U' k' MDuration                       : 3 min 34 s
6 x$ Z; X$ t, y, j) uBit rate mode                  : Constant: a. m% s- v$ x% H. |1 c
Bit rate                       : 448 kb/s0 h& J4 n" H! h
Channel(s)                     : 2 channels
/ X# m4 y6 z8 B( RChannel positions              : Front: L R
, q! r# Y( W  |  M, Z4 U6 p" @Sampling rate                  : 48.0 kHz
9 `; W+ S/ ^" I- Z2 n* V2 H$ hFrame rate                     : 31.250 FPS (1536 SPF)
- C, v" z  x' ~9 c; h1 R9 ABit depth                      : 16 bits1 }% N# R- W' R3 V1 C& i! ?
Compression mode               : Lossy
  {( t6 Y! Q4 {9 E9 ]% p. `3 M# NDelay relative to video        : 31 ms
; ]6 r  N( {& A; yStream size                    : 11.5 MiB (1%)
0 g; q2 U! b5 j& f( m, G* fTitle                          : clip09-0901! y: r7 ]: Y- i9 n$ p
Service kind                   : Complete Main
! ]7 l' r, R+ T2 U) CDefault                        : No
8 n; x2 [+ U% @7 \Forced                         : No4 t4 `/ J8 l& R; g, q- a7 n

+ a4 T3 N. s8 j, o+ y( u% |  l* TAudio #108 m2 d  f6 q' a- K4 o" [& |
ID                             : 117 s* R, ?: I3 d- G$ W/ \
Format                         : AC-3
4 h. k4 x4 N- P: j& ^5 WFormat/Info                    : Audio Coding 3
! n6 g; ~) N+ g: NCodec ID                       : A_AC39 M/ T7 w  V- q
Duration                       : 3 min 34 s, B* a* Z9 G0 O
Bit rate mode                  : Constant; O6 H! A$ \; O  w! F1 m
Bit rate                       : 384 kb/s" M; E* ?. g; Z) Y3 W% l4 |
Channel(s)                     : 2 channels
" h7 d2 H- f# A2 V* CChannel positions              : Front: L R
* B8 U8 H7 B1 `3 j1 G$ PSampling rate                  : 48.0 kHz
' J7 Y) q# `+ I0 q# A; I. \Frame rate                     : 31.250 FPS (1536 SPF)
/ o+ B* ]% J  G+ R  V# k- \Bit depth                      : 16 bits
& g: y6 g7 b0 }* ~0 a0 a$ o# \$ g! eCompression mode               : Lossy% @9 j2 k' _' `" M
Delay relative to video        : 12 ms
; A8 c. M/ m1 GStream size                    : 9.83 MiB (1%)
+ H( b2 s. o4 S( J4 D+ aTitle                          : clip10-0902
2 [  h; `" p3 U) Z. `4 QService kind                   : Complete Main0 _, D1 f! F- m3 L) J  t
Default                        : No$ P5 ?3 N. K. }
Forced                         : No" w5 l5 F6 n- g% T
! G, y) z3 @! G. \% u9 q
Audio #11
! c+ u8 p. I* g6 @+ Z! gID                             : 12
9 Y' ]% E" f5 {, TFormat                         : AC-38 m* g& A; P) K6 Z/ K/ _, U7 j
Format/Info                    : Audio Coding 3! y" |6 X! A, m- U/ v0 q$ n
Codec ID                       : A_AC3+ {# Y% A, C3 V) M/ m' L
Duration                       : 3 min 34 s& y" p* z+ _* u1 Y
Bit rate mode                  : Constant* E0 ~) }; ^; v* p8 h0 b9 G3 T
Bit rate                       : 448 kb/s
0 Y' F9 h3 r/ z: q$ [- }' aChannel(s)                     : 2 channels. V4 ]0 J& n8 f
Channel positions              : Front: L R
% M" }& @: |$ O0 `Sampling rate                  : 48.0 kHz
# R! `; V% F3 K0 KFrame rate                     : 31.250 FPS (1536 SPF)$ W, ?- k. I. ~1 W% p
Bit depth                      : 16 bits6 Q3 D- r0 u! X# L; t4 Q2 X4 h3 c
Compression mode               : Lossy$ D9 A2 T1 u# T1 ]* }# A4 T, U- M5 k
Delay relative to video        : 20 ms
1 Z5 O3 O' [$ a" i# T! Y+ _Stream size                    : 11.5 MiB (1%)
% N$ }0 p& A# U% nTitle                          : clip11-09041 Q; H& Q$ m3 q4 f' @9 D" w( @9 J) w
Service kind                   : Complete Main
% ]6 j. k1 J$ w1 [8 l( I- tDefault                        : No
( N, Y6 F. b( i1 y; f1 S0 [Forced                         : No
- R5 i0 L+ [# s. [, T/ U7 t7 E4 s; F) s2 A# Z8 ~
Audio #12
$ e7 g( J  m1 b+ {4 ~, C; uID                             : 13
7 |8 |# c0 i# mFormat                         : AC-3( ^+ n  G, d4 J/ O0 y2 {# |
Format/Info                    : Audio Coding 34 R2 E2 H; T# K, p; a' U
Codec ID                       : A_AC38 p- x" W- G  z2 a+ K3 b, V
Duration                       : 3 min 34 s
# a8 h! }3 M/ G. E& ^$ J  oBit rate mode                  : Constant5 A: t5 s. x- V+ @4 U0 E; P
Bit rate                       : 384 kb/s
2 I$ \' U7 l$ }$ q9 {Channel(s)                     : 6 channels
9 O% Q  c& z1 \. S7 |Channel positions              : Front: L C R, Side: L R, LFE- B" q  M2 I/ u* S- ?# H, o
Sampling rate                  : 48.0 kHz
1 A3 u/ `1 O# ~Frame rate                     : 31.250 FPS (1536 SPF)
& L) p) m1 o6 X5 k' eBit depth                      : 16 bits1 V5 r( w) t( M  e
Compression mode               : Lossy
! \4 {, ?6 M/ ~4 u" Q$ X, B9 `Delay relative to video        : 9 ms7 t2 T# ?8 w! \
Stream size                    : 9.83 MiB (1%)
0 B/ l- {0 J+ u1 z0 s! o9 zTitle                          : clip12-0914
3 E5 B6 R) b( k# cService kind                   : Complete Main; S- s6 U: S% @$ k$ q
Default                        : No2 v$ S. e) ?, f) s: c
Forced                         : No
! B1 J3 G, V# h$ B) `" ^
( M  V5 L  }9 vAudio #13" E* d% w$ v+ m* V8 e% H
ID                             : 14+ I) u! m: t3 r) U
Format                         : AC-3; g; V% q: o/ w
Format/Info                    : Audio Coding 3
- B  ^9 z: r* ]. c; j: \0 hCodec ID                       : A_AC3- p6 X9 u  U! A9 x, {
Duration                       : 3 min 34 s
" K! @3 E. \" ?Bit rate mode                  : Constant: z. V  ~6 {7 ]; G7 g
Bit rate                       : 384 kb/s  s+ E* ?% s( r! h4 g; Q
Channel(s)                     : 6 channels! I: A0 n4 X7 ]/ O
Channel positions              : Front: L C R, Side: L R, LFE3 K, H6 b" n/ D, T
Sampling rate                  : 48.0 kHz
" C* O7 g/ j' q; _1 tFrame rate                     : 31.250 FPS (1536 SPF)$ h2 W1 K# W" q; l' N
Bit depth                      : 16 bits
+ {$ y& K  }& C1 SCompression mode               : Lossy
; l5 P  H, Z  a8 ZDelay relative to video        : 10 ms
8 S6 J  ~5 b) lStream size                    : 9.83 MiB (1%)
) A) t: m2 i% zTitle                          : clip13-0914_encore
9 B$ |! F& i8 ^: h6 G" iService kind                   : Complete Main
# U' |$ D1 I& K9 w. ~Default                        : No
# u7 @  F3 x, |7 M; lForced                         : No
4 q  }' L% N7 z5 a1 d
6 B8 Y% _. A' i% k" t# KAudio #14
  M" i8 E. i2 c6 l8 _* M. PID                             : 15
4 u9 G5 Y/ M2 I, FFormat                         : AC-3/ A+ ?  g" k# f: j- J
Format/Info                    : Audio Coding 3
8 _8 i* P  O6 s: ~2 e+ t1 fCodec ID                       : A_AC3% q( B; i0 i4 Y  _9 i
Duration                       : 3 min 34 s4 S- u0 P; H( W
Bit rate mode                  : Constant
, D- |& \0 o  x3 x, v1 pBit rate                       : 192 kb/s! q: G7 g, W' G5 g1 z$ f
Channel(s)                     : 2 channels
8 _4 F% ^) n! K- H, s8 vChannel positions              : Front: L R
) M4 D4 [8 |: o/ e: a1 g- KSampling rate                  : 48.0 kHz! g4 p' a( i* y/ ^
Frame rate                     : 31.250 FPS (1536 SPF): T9 S0 J4 j( f3 ~* [7 _7 B
Bit depth                      : 16 bits
+ y: H. @& c+ W  `. ^Compression mode               : Lossy' K7 {( q# v8 }) z3 m
Delay relative to video        : 5 ms
/ m7 c! _/ ]$ |! e# k5 RStream size                    : 4.91 MiB (0%)4 I/ D( \! n' S0 X* s' n3 t5 T
Title                          : clip14-0919
' [% W5 M9 Y+ N1 a! FService kind                   : Complete Main: z. m. d: |. ~7 ]) Y2 `
Default                        : No; \2 y. @9 z! ~2 X) J' \
Forced                         : No% m' e" K% x$ m: h3 L0 t; v/ p

2 O1 z+ S, z7 Y6 G8 IAudio #15
% T9 o# h: P  }6 D; VID                             : 16
6 s( ~# \1 k& i5 F) @Format                         : AC-3! R3 _% ?% V7 L9 h& l$ ^. {
Format/Info                    : Audio Coding 3) q' U  A/ T9 n' `) J% w! q' u
Codec ID                       : A_AC3/ }8 S( z0 L& y8 q
Duration                       : 3 min 34 s% u- ]9 Y$ R+ N7 [
Bit rate mode                  : Constant, I& v+ u1 M# D% p/ F
Bit rate                       : 384 kb/s
3 C! T# \! [( m+ e: }4 U5 GChannel(s)                     : 2 channels
! k6 t! q+ |5 j1 p) T/ s0 p, @Channel positions              : Front: L R
: |0 K+ e1 O4 P2 j1 B/ ]Sampling rate                  : 48.0 kHz* B8 R) n& I5 H
Frame rate                     : 31.250 FPS (1536 SPF)
8 N+ v) M: w/ bBit depth                      : 16 bits
1 v2 ~8 d4 S/ x* P" ^$ xCompression mode               : Lossy
8 S5 H2 y- L% C! B% h) C/ M8 NDelay relative to video        : 31 ms
  Z- a* b2 D+ W1 M. GStream size                    : 9.83 MiB (1%)
" @# e/ J* s, k- C+ |& G0 B- NTitle                          : clip15-1007! W1 S5 z  S6 Q* Z: r. E- |
Service kind                   : Complete Main" y* H5 N# s/ \: {# w1 u! z# j
Default                        : No- w  P5 [% v% o0 P  D) G+ z
Forced                         : No
- M/ G4 \  {4 W. N
" E" H! k& O) ?! h# F/ {3 v  |8 yAudio #16, a7 v% m- ?+ M' W
ID                             : 177 N* \* M7 d4 C1 c" F, v: }5 z
Format                         : AAC
$ O3 n: ^  @% v$ {Format/Info                    : Advanced Audio Codec4 N- c) h$ `8 g
Format profile                 : LC( G' z! _, q& y( z
Codec ID                       : A_AAC-2
' d2 i8 x' ^9 F2 NDuration                       : 3 min 34 s# Z) n" [3 {. A* B8 p
Bit rate                       : 197 kb/s' }9 p( ^- L- }
Channel(s)                     : 2 channels
3 S  `% U: H% `. W, L% KChannel positions              : Front: L R
  l0 b" s3 c; u$ t4 dSampling rate                  : 44.1 kHz! F9 A$ z  Z. y3 Z
Frame rate                     : 43.066 FPS (1024 SPF)& P) \  s: _  d- Z4 ~
Compression mode               : Lossy# C4 I; y# N* ^9 t& q3 l/ u
Delay relative to video        : 6 ms6 K( }6 O1 {. t8 w4 ^& q
Stream size                    : 5.05 MiB (0%)% |1 o8 E/ D) ^9 x& J
Title                          : clip16-mvhyuna
( y3 Z" V9 B! p$ \& |/ H. dDefault                        : No: D  p: |5 M- o) V- r. r4 [5 e% w
Forced                         : No
# z+ z2 W% b! ]. m; f7 ?7 ^6 V3 d
$ k6 h; f/ E( K1 A0 x- }, {
& W% s) d4 c" r) l4 t% C: h0 N% r; C. {) _+ x! t7 Y

& V. b8 X4 q6 N
+ j/ C2 l! y* S; ^$ l( O. r' h
9 u1 E& ^: n' C, m/ a' x, R
/ k& ?0 i9 B% i4 T. Q9 M% n  k: ?! G% M! i5 N1 G; h

評分

參與人數 1名聲 +10 精幣 +10 收起 理由
samay + 10 + 10 精品文章

查看全部評分


發表於 2019-1-22 23:47:35 | 顯示全部樓層
謝謝分享
回覆

使用道具 檢舉


發表於 2019-7-15 14:41:29 | 顯示全部樓層
感謝分享
回覆

使用道具 檢舉


發表於 2019-7-19 17:59:09 | 顯示全部樓層
感謝分享
回覆

使用道具 檢舉


發表於 2019-7-20 22:56:56 | 顯示全部樓層
感謝分享
回覆

使用道具 檢舉


發表於 2019-8-14 21:20:41 | 顯示全部樓層
感谢分享
回覆

使用道具 檢舉


發表於 2019-8-21 07:00:33 | 顯示全部樓層
當初聽到江南STYLE讓人熱血沸騰 其實GENTLEMAN也很燃 但我就僅有這兩首印象
回覆 支持 反對

使用道具 檢舉


發表於 2019-10-26 23:48:17 | 顯示全部樓層
8K 65MB 電腦要爆炸了吧
回覆 支持 反對

使用道具 檢舉


發表於 2019-10-27 17:10:49 來自手機 | 顯示全部樓層
Thank you of shairing Gangnam Style....could you upload to Google drive.....i can't download from Baidu link ....
回覆 支持 反對

使用道具 檢舉

您需要登錄後才可以回文 登錄 | 註冊

再次提醒,當您點擊發表回覆,視同您已經明白本討論區的版規,如不明白請先參見各版版規。

熱門推薦

老漢自己亂設計的150吋不全套劇院(電源與布幕)
老漢自己亂設計的150吋不
廢話不多說,圖多文字少,因為書念得不多,詞窮,而且文章沒有連
Samsung 2019全新8K電視系列美國正式預售 – 最低售價五千美金有找 !!
Samsung 2019全新8K電視系
2019 年可謂是 8K 電視群雄崛起的一年,日韓甚至中國電視廠牌都
第六元素調音道具對顯示器和家庭劇院影響之討論串
第六元素調音道具對顯示器
話說小弟不喜歡更換機器,但對調音設備、電源處理,避震道具,地
Sony  WI-1000XM2頸掛入耳主動式降噪耳機 進階卓越降噪智慧聆聽   全新輕量設計音樂隨行一手掌握
Sony WI-1000XM2頸掛入耳
Sony在台推出全新WI-1000XM2頸掛入耳主動式降噪耳機,年度耳機
請教各位我的低音喇叭要如何接擴大機denon 1500h
請教各位我的低音喇叭要如
請教各位我的低音喇叭要如何接擴大機denon 1500h?

聯絡我們| 問題反映| 小黑屋| 手機版| Archiver|  本網站特別聘請 蔡家豪律師 為本站法律顧問

快速回覆 返回頂部 返回列表