查看: 1084|回覆: 5
收起左側

[4KUHD] [8K超清MV] 江南Style.16in1.HEVC.65Mbps.60fps_10bit[MKV/1.7G]

[複製連結]

發表於 2018-10-31 08:29:13 | 顯示全部樓層 |閱讀模式

馬上註冊,結交更多好友,享用更多功能,讓你輕鬆玩轉社區。

您需要 登錄 才可以下載或查看,沒有帳號?註冊

x
本帖最後由 刘302 於 2018-11-2 06:37 PM 編輯 ; A* k8 n, |0 d/ A+ `
" O  ]' H4 c# j( x6 I! ~
江南Style_1.jpg + N3 t2 P5 V* w- I; n  M$ W3 U, {

/ M2 v# |4 c2 n: d; w& c 江南Style_2.jpg
& m5 Y' E/ R( m4 u. v0 n7 i- J" R! n3 q, J/ X  ~3 j7 I
江南Style_3.jpg $ [$ h/ A$ b) h; R8 G& h7 M
1 h- x8 c# p+ D! \1 ]+ I4 {" p9 j
江南Style_4.jpg & C, ?2 S3 Y/ W( N
3 @* P! h! X2 o" r- z- g% d) F
百度云盘下载:
/ O$ C( R  _4 t链接: https://pan.baidu.com/s/1ggAo0qNGU2TaLZAnHSpY4w
; X7 t# {" v  q; U提取码: jsam2 F( ?% Z$ t0 p/ r8 g
8 m7 J4 Z0 g4 Z. N6 m
PS: 英伟达 GTX 1060 以上显卡硬解可以60帧满帧播放,试机验机烤机良品。; e4 Z" _* Z' Z$ B$ x
     99.9%的电脑不能流畅播放的H.264版本在此:: o$ `! H0 w  y1 p
     https://www.hd.club.tw/forum.php?mod=viewthread&tid=191128&extra=page%3D1%26filter%3Dtypeid%26typeid%3D216+ m4 ?5 b  @, C  Y" ?& q  l

& y& p+ ?, f% `5 GGeneral8 `+ H1 K5 e- S( B8 R3 \& n" ?
Unique ID                      : 129770745003807216888477609907494280483 (0x61A0EFB5FFA002662D96097426475D23)7 ~; q6 b0 n  ^1 ]( l: R& Z
Complete name                  : [8K超清MV] 江南Style.16in1.HEVC.65Mbps.60fps_10bit.mkv
+ H/ J7 j7 o' FFormat                         : Matroska
2 w: ]" o- E8 L* U' \  i! V, cFormat version                 : Version 4 / Version 2
$ |8 Y/ ?; d7 |* ?" {$ I) w+ TFile size                      : 1.71 GiB2 `9 ]( r9 d# R3 a6 b- P
Duration                       : 3 min 34 s& q; H7 |3 e; \' E  r* A& }* o6 O1 Y
Overall bit rate mode          : Variable9 r4 a. `) g: s( [8 m# q
Overall bit rate               : 68.2 Mb/s
- p; \; t# r  X! q' {# LEncoded date                   : UTC 2018-10-30 22:45:580 k: n* |6 q7 z1 Q- r+ X+ I
Writing application            : mkvmerge v28.0.0 ('Voice In My Head') 64-bit
0 T/ w! v. z( L( E" a% {8 MWriting library                : libebml v1.3.6 + libmatroska v1.4.92 s3 v7 Z0 E/ d& O6 I$ U
Encoding Gui                   : Hybrid 2018.10.21.1/ H( o. m$ I+ K$ i9 Y

3 [( w) M% c( w) ?- KVideo+ s2 V+ L& Q8 ]. m' _  u0 _
ID                             : 12 B4 e; h( O. b
Format                         : HEVC
% X6 a& y8 ^1 r. X4 I" gFormat/Info                    : High Efficiency Video Coding" h' U* e9 l: T6 M3 d9 j
Format profile                 : Main 10@L6.1@Main5 \- a1 ~6 p  }6 L% l
Codec ID                       : V_MPEGH/ISO/HEVC
5 h6 f* a, K3 S& n% v$ e/ m% fDuration                       : 3 min 34 s% T0 b: D* V7 O1 R
Bit rate                       : 61.1 Mb/s. W- L6 k1 V$ D* o  B
Width                          : 7 680 pixels
* d# m2 g' f/ A/ Z3 eHeight                         : 4 320 pixels5 d' o) h: M  S4 S6 l
Display aspect ratio           : 16:9! m( f* ^3 k! k0 ~
Frame rate mode                : Constant9 a$ r6 s+ e2 ]$ f: N2 N  S
Frame rate                     : 59.940 (60000/1001) FPS
) @& v& q% D0 y1 p; eColor space                    : YUV
) v$ I; c9 {+ O+ xChroma subsampling             : 4:2:0
3 S( A1 K1 ?2 r" \0 z) nBit depth                      : 10 bits( k% H! Y2 J  e! D" `
Bits/(Pixel*Frame)             : 0.0311 H$ b$ j& C% l2 G& K& X
Stream size                    : 1.53 GiB (89%)
2 r6 ^7 _" [: C$ SWriting library                : x265 2.9+2-7e978ed93d60:[Windows][GCC 8.2.0][64 bit] 10bit
$ H0 F- {: O" q  @3 i, x$ ~, {1 H8 vEncoding settings              : cpuid=1111039 / frame-threads=4 / numa-pools=16 / wpp / no-pmode / no-pme / no-psnr / no-ssim / log-level=2 / input-csp=1 / input-res=7680x4320 / interlace=0 Default                        : Yes
+ }  n1 r- |; Z3 R+ E; fForced                         : Yes/ Q1 T/ g6 z- D* j
Color range                    : Limited
' J% u2 E. s& IMatrix coefficients            : BT.709
- V% b4 S# L0 h& J% ^
. S8 ~' g& ?9 CAudio #17 k3 d6 k) f, C: ~/ G
ID                             : 2
7 P; g& c' `- A% a, nFormat                         : FLAC
( @: c# d6 S, V& G% r+ m6 kFormat/Info                    : Free Lossless Audio Codec; ~5 \9 d3 b% @, E7 M
Codec ID                       : A_FLAC" B) R' n* S0 i* `, m
Duration                       : 3 min 34 s
3 h+ ]4 z9 p) J: ^- S' ]Bit rate mode                  : Variable
8 P: H3 c2 C; f: ^# yBit rate                       : 1 650 kb/s$ u0 C) \0 M& o& p$ @; B
Channel(s)                     : 2 channels
+ u  e+ e) \; |4 B- r+ a! H2 Z. AChannel positions              : Front: L R
7 Q( H, N/ H, \2 BSampling rate                  : 44.1 kHz
. U2 J& f* S$ e! m2 g5 w. z! o% vFrame rate                     : 10.767 FPS (4096 SPF)
7 R* b/ O, g0 YBit depth                      : 24 bits
5 W( Y" G8 G- v! y5 t; rDelay relative to video        : 89 ms9 p/ S* ]7 }0 f3 @* v2 e
Stream size                    : 42.2 MiB (2%)2 z  q5 r4 w8 Q  l- X( p% W1 R
Title                          : clip01-mv' Z& g0 G* b( H" T/ ~. @. `
Writing library                : libFLAC 1.2.1 (UTC 2007-09-17)
! [: P4 {* D( ~6 v9 cDefault                        : Yes
: f+ j4 v; j! o2 X% ]Forced                         : No
# m. X% G8 n8 ?2 _. ]) l+ Q2 u2 E$ F* L9 |. `. Q
Audio #2& z$ t& F3 I2 x" s# k
ID                             : 3
0 B9 }. z0 U: d! C0 hFormat                         : AC-3+ C  _0 g8 ]% Q* o2 W
Format/Info                    : Audio Coding 3# V+ |5 g  \3 L
Codec ID                       : A_AC3/ K: @# j8 c7 M
Duration                       : 3 min 34 s& i! i7 M/ j1 g# W3 _
Bit rate mode                  : Constant. }5 g  x3 K( H# I6 M! e9 W0 J
Bit rate                       : 384 kb/s
* \; X  Z0 D/ pChannel(s)                     : 2 channels
, [& c$ ]' ~7 K1 gChannel positions              : Front: L R
4 i+ r, u. }  i0 ^. m9 PSampling rate                  : 48.0 kHz/ ~/ T  P6 J5 J1 U$ b
Frame rate                     : 31.250 FPS (1536 SPF)
" ?! c7 Z/ J; \( c. W; `* [  VBit depth                      : 16 bits
! p+ d/ f( q8 a/ @! \5 ^Compression mode               : Lossy
, e  Y5 ]% i+ c* K/ f6 IDelay relative to video        : 12 ms" _' e* o$ U/ ?  N
Stream size                    : 9.83 MiB (1%)
9 V/ E' e* g1 r: FTitle                          : clip02-07157 i6 G7 a1 l: @+ S, W* j
Service kind                   : Complete Main( |' n# n; G; j2 |4 D4 B
Default                        : No- d/ F/ {& N1 p
Forced                         : No
" H8 u  |( y! Q  v/ Q; k& @" y
" t# ~$ S6 [3 E5 e4 nAudio #37 M1 Q( i- Q5 l1 N, V6 J. a, A
ID                             : 4
6 y9 `) ~8 n5 [2 F' m. {Format                         : AC-3" p' m5 p& @2 g8 v( u
Format/Info                    : Audio Coding 3
, k+ ?/ z/ s& w- O8 ]! ]Codec ID                       : A_AC38 K8 X9 H: \  |; p
Duration                       : 3 min 34 s
  H3 \' o) q' I- V/ ]3 d$ nBit rate mode                  : Constant
% f2 V& d, U& X9 M5 z& A- ]6 pBit rate                       : 384 kb/s  A8 ^8 T# G; B& k; v; c
Channel(s)                     : 2 channels
  a) Q- _4 E3 {: {Channel positions              : Front: L R
9 Y% O4 a# ~8 @Sampling rate                  : 48.0 kHz
* d! U( p5 c* p8 a+ p& pFrame rate                     : 31.250 FPS (1536 SPF)
6 e9 H/ V* `- Z3 v6 RBit depth                      : 16 bits
: h  y1 z* b! R* l% F% d  ZCompression mode               : Lossy
: i- Z: U. U' ]" L+ z9 G2 Q; J+ PDelay relative to video        : 5 ms2 o& v" V* F* m! A
Stream size                    : 9.83 MiB (1%)
: }; t1 G, S& p% h# P, F& ZTitle                          : clip03-0722
! s/ @8 N2 M: d$ @) GService kind                   : Complete Main/ K& k: ?# O! `0 x, j
Default                        : No
. L! T+ S' B# b+ v* ^Forced                         : No
! ?( Q6 [& i7 M9 k) J
* Z$ D' _1 C0 {: l  T- PAudio #4
  X7 U- b8 S8 ^, ~: b4 J* a: l7 V( \ID                             : 5
7 E1 M8 t- y( y% z9 G# D, [Format                         : AC-3+ _" z0 d% y# Z' e5 p2 j
Format/Info                    : Audio Coding 3
+ k: o% c4 |) g" Z+ OCodec ID                       : A_AC30 J1 ]+ j8 [' A! E- n% o
Duration                       : 3 min 34 s
" l; t- K1 D0 Z$ b- NBit rate mode                  : Constant& N/ D7 {' ]0 K9 {6 c
Bit rate                       : 384 kb/s+ K' T% {$ r, ~3 ~6 |' F
Channel(s)                     : 2 channels
" H7 I% s: b1 |* d; i# I& w* mChannel positions              : Front: L R% W8 ]( T7 X5 ?- Q" k7 E
Sampling rate                  : 48.0 kHz+ j+ f/ J+ a1 ~/ N
Frame rate                     : 31.250 FPS (1536 SPF)5 }/ R2 y6 W# H4 d* ?
Bit depth                      : 16 bits7 M" Q5 u) n( x% v8 j0 @1 R
Compression mode               : Lossy
% I8 o! O  ~* l" v6 [/ y% vDelay relative to video        : 19 ms, n: X5 d+ B7 ?) K  D. N# i
Stream size                    : 9.83 MiB (1%)
/ U! `* ?, a8 d2 M4 [8 }: ?  KTitle                          : clip04-0729
  j, E8 n+ w6 Q- xService kind                   : Complete Main/ J! U2 y) S+ }6 j8 [/ I4 V
Default                        : No1 ]2 z+ }$ ]( S$ M
Forced                         : No! ^% h% s( W0 C" n
5 l" t, I1 X) k/ G" _& I; t/ M7 D" V
Audio #5
# r" ?! I, i) O* O) n3 bID                             : 6
, T$ F6 j* l- g# P- o% v( A2 |4 lFormat                         : AC-3) A1 S+ ]/ c+ J# G: K4 ^, X
Format/Info                    : Audio Coding 3. u$ G9 x/ x3 u* H
Codec ID                       : A_AC3
0 y' f: h! y) w' ]Duration                       : 3 min 34 s
0 f' @( A: v: BBit rate mode                  : Constant: k9 M: q. j  V! G. U2 b
Bit rate                       : 384 kb/s7 g( I. X* `) V- v. b
Channel(s)                     : 2 channels
. E- ^. V4 i" I5 Q+ O4 kChannel positions              : Front: L R# \" t3 }. f1 z
Sampling rate                  : 48.0 kHz* O9 v, v5 s7 ^; x& @# v
Frame rate                     : 31.250 FPS (1536 SPF)
- V9 E  o, d5 TBit depth                      : 16 bits
& s6 ]+ }7 v$ m, b' rCompression mode               : Lossy& P. W, b3 o! p, r9 _
Delay relative to video        : 19 ms3 v; ?# Z+ z1 h: |! ^- H
Stream size                    : 9.83 MiB (1%), ?3 S5 ^5 Z4 C* a' {) i# P- u
Title                          : clip05-0805
: [: R! Y* v9 R. rService kind                   : Complete Main! M7 u4 E0 a* l" |! V
Default                        : No) R/ p% t0 M8 h! t' N5 Q
Forced                         : No
% Z$ _5 g& q2 p4 g( T8 i' P' ]+ P) ^. w# _- b& T
Audio #6
6 K4 u& C5 @  D* Z; Q  aID                             : 7; T( Y3 ^2 b  V2 l7 s' @' K
Format                         : AC-31 y& a3 A4 Q/ [2 O' @: ]
Format/Info                    : Audio Coding 3$ [$ X% a  T7 N' u2 w2 x
Codec ID                       : A_AC3
0 Y0 z1 N5 q' L& YDuration                       : 3 min 34 s
( d' t: C! p" s6 XBit rate mode                  : Constant
6 L" z8 o! N! R0 H0 gBit rate                       : 384 kb/s" @. x4 d+ r8 y( p8 \; K
Channel(s)                     : 2 channels
$ P- e8 K3 Y0 u: i+ |2 y; a$ n3 FChannel positions              : Front: L R! Y% d7 B# w6 T% [
Sampling rate                  : 48.0 kHz
4 p0 P4 U( m9 B  @2 y& }Frame rate                     : 31.250 FPS (1536 SPF)
3 ]' q- \( n6 y4 rBit depth                      : 16 bits4 b3 `0 `8 g$ ~
Compression mode               : Lossy* u, J, T! s' j- K1 C6 c, J$ r% X
Delay relative to video        : 21 ms- T7 ?) T3 C4 s% o$ i
Stream size                    : 9.83 MiB (1%); {& ^4 P8 S, `# v: ^! y
Title                          : clip06-0812, `, E( B* {& p2 n
Service kind                   : Complete Main
' d+ x( k/ T% d3 g* dDefault                        : No5 P6 i/ Y9 ?% e0 G4 O# V
Forced                         : No
3 b( t2 g: t+ ]$ F/ g0 y! V9 X* e6 f' m4 Z
Audio #7/ F1 N9 [7 i; o
ID                             : 8
- J9 s' S6 c0 W- B- y" X- l6 t; w' ^% tFormat                         : AC-3$ N! b  ~# b0 i
Format/Info                    : Audio Coding 3
1 o  t: r$ r( g, P( ^1 C$ U; E' V' ~Codec ID                       : A_AC3
9 Q" f7 a! |9 f; q" R0 xDuration                       : 3 min 34 s# v  W; @) V% V4 E& D
Bit rate mode                  : Constant
0 C  D; T0 G6 J9 S6 o$ b0 F6 m' rBit rate                       : 384 kb/s
6 L. S& S& F$ X. h6 N9 H& P# n( EChannel(s)                     : 2 channels5 H% x/ h' g6 W. p; [
Channel positions              : Front: L R+ h8 {& o5 |2 F% b/ d
Sampling rate                  : 48.0 kHz" o7 z& O3 U4 `1 }
Frame rate                     : 31.250 FPS (1536 SPF)
8 D' O( n" t1 H8 k$ H2 F0 y7 EBit depth                      : 16 bits
; M% ^' q7 x5 ]0 ]1 [8 T  p6 `Compression mode               : Lossy- W# p9 F+ q( N# M8 R
Delay relative to video        : 6 ms0 s2 ]) ]' |+ D! |
Stream size                    : 9.83 MiB (1%)9 t4 v& L$ M5 W4 ^
Title                          : clip07-08198 p4 f' k/ E  K7 ~) s) m, A4 L
Service kind                   : Complete Main: y% V* b2 F! Q9 S, I% `9 {
Default                        : No
5 n7 ~# K, v" F) K) Z  l$ ^6 uForced                         : No8 d6 ~9 Z. J6 h9 ?2 {" n5 O6 d
9 h: z! g* k3 W
Audio #86 Z, O. J1 j! m/ O% ]6 W
ID                             : 9, J! C8 A1 q$ [9 o) ]4 d! X/ @4 U
Format                         : AC-3
. E/ |& F; t* a1 G! ~Format/Info                    : Audio Coding 3
% a* v3 A' I' [  r1 FCodec ID                       : A_AC3
8 M# i' d! i0 uDuration                       : 3 min 34 s
# v9 a" B4 R( r. O/ @Bit rate mode                  : Constant
3 {+ \/ {$ t" {% `% @. N3 ~' sBit rate                       : 384 kb/s
7 o$ Y& j% I$ k: FChannel(s)                     : 2 channels- z- Z' _! w  |) b' O
Channel positions              : Front: L R; u6 A1 o: n& S3 F
Sampling rate                  : 48.0 kHz
& U0 r# B% m! `( D0 n; p* J9 rFrame rate                     : 31.250 FPS (1536 SPF)# M+ K$ |/ e6 _7 |, b/ f1 H) Z9 M
Bit depth                      : 16 bits
2 f4 T5 c" i$ E3 y2 |Compression mode               : Lossy
9 V2 ?! Q8 k  c- `( ]Delay relative to video        : 6 ms& H  i; X. q+ @8 E" o! d  u
Stream size                    : 9.83 MiB (1%)5 w" P# ?% G' @
Title                          : clip08-0826
" t/ n- H, w3 FService kind                   : Complete Main% {* l/ ^+ z/ k( ]
Default                        : No; f" T! Y+ B# I# `
Forced                         : No
8 L) B% t; r% s& F2 n; f" n' b4 q
8 E7 o# ?3 z- ]8 \& CAudio #9
6 W6 ?2 V1 J$ d, F0 TID                             : 10
& s4 W! o8 N# y5 `Format                         : AC-3
7 F2 d( W/ J$ S+ j- FFormat/Info                    : Audio Coding 3
: }" D4 [4 A% ?9 F- F. F) `5 sCodec ID                       : A_AC3# t" n( r" M( x! p6 |0 \* E
Duration                       : 3 min 34 s
% Y& O2 H0 X) S. d. tBit rate mode                  : Constant
7 x3 ]8 w1 S, A% }Bit rate                       : 448 kb/s1 Y% a6 D  X& k0 Q
Channel(s)                     : 2 channels5 o# b& j4 m# ?) z
Channel positions              : Front: L R0 W. j% J" G2 G- T( W
Sampling rate                  : 48.0 kHz
7 D! W* z; _5 Q: V6 mFrame rate                     : 31.250 FPS (1536 SPF)/ j+ T. z8 A/ H+ O
Bit depth                      : 16 bits
: o5 j! ^% i# W8 p' jCompression mode               : Lossy
+ T2 V! B$ G& z7 Z" f# dDelay relative to video        : 31 ms) X, l2 p" a$ I7 b+ E
Stream size                    : 11.5 MiB (1%)9 |9 k. T+ Z7 R" Y- _. p
Title                          : clip09-0901
0 Q+ M! l/ s! h% V7 fService kind                   : Complete Main
7 z9 F* ~; A4 q8 k. C! TDefault                        : No
& ~( R# u0 D& Y% w' B; |2 q1 F! M. fForced                         : No% Y3 h  A  m" u# X
  m1 L! s& U  `  u) g: k
Audio #10
% N. {/ S; A3 \$ W1 j% C- ]1 fID                             : 113 k  w/ H3 F% i5 ~3 p1 \
Format                         : AC-3
! m" w4 t2 {% rFormat/Info                    : Audio Coding 3$ X- c) E1 t- S  d1 k
Codec ID                       : A_AC3- N" A: r% f/ j0 ?
Duration                       : 3 min 34 s
' {6 j) y+ j1 R' K5 X- q* T( ?Bit rate mode                  : Constant( c/ W& Y  n( h4 J
Bit rate                       : 384 kb/s: Y. y& D! D6 X
Channel(s)                     : 2 channels2 n: I' _& |8 p! }& h: j# p7 O# M7 W
Channel positions              : Front: L R/ h1 X8 T8 F- C
Sampling rate                  : 48.0 kHz  r( o. {1 r5 Y% x$ `
Frame rate                     : 31.250 FPS (1536 SPF)+ ]3 \, w: A6 V4 d9 W
Bit depth                      : 16 bits
. s# B( y( ^/ w1 SCompression mode               : Lossy
8 ~1 w$ d8 Z* M7 d% rDelay relative to video        : 12 ms; s1 g) Z' h2 {  \) O; x; @) r# |
Stream size                    : 9.83 MiB (1%)
" o) ^5 Z* f1 x" s5 wTitle                          : clip10-0902( z" B& Y3 {7 y+ w
Service kind                   : Complete Main6 E0 S" p( T7 E% I7 O* q, u0 Y
Default                        : No, f! z6 w5 z0 X" |% Y
Forced                         : No& E3 z& [2 p' B6 x0 v, s

0 D9 m' h! ?; \7 F/ sAudio #11' ~$ C6 y5 K4 {  q
ID                             : 124 j0 t# x  |; X, a. }( U
Format                         : AC-3
  y3 H! L. w# ~; x9 t% I' jFormat/Info                    : Audio Coding 3
1 h. J; s1 S2 B- @Codec ID                       : A_AC3& s' A; i7 X- o5 `. O- n& a8 B# }8 J
Duration                       : 3 min 34 s+ K8 y! z1 o: d7 j8 h0 \. t( R
Bit rate mode                  : Constant7 C$ Y; h+ x' A& m1 S0 Y# t
Bit rate                       : 448 kb/s
) R, G7 ?' s' L, D- UChannel(s)                     : 2 channels; y9 o+ {5 ?' _- K# N) ?; J# s
Channel positions              : Front: L R
' @/ q- a  L- m3 W; NSampling rate                  : 48.0 kHz9 @/ c9 ?( _5 K0 b2 r
Frame rate                     : 31.250 FPS (1536 SPF)
- B) S3 w6 p( t$ P* g. O5 P) RBit depth                      : 16 bits
+ G8 `6 }: b, U8 C) bCompression mode               : Lossy
# O: g! h/ T. ?+ B) }2 v; C( sDelay relative to video        : 20 ms5 i' b9 }$ b4 O) `5 Z
Stream size                    : 11.5 MiB (1%)9 M7 w6 H0 y& p& v0 ]) v( s/ p
Title                          : clip11-09044 C& M+ [3 Q7 C& ^1 @" [# d; @
Service kind                   : Complete Main$ k3 k: x3 q: i  |; [
Default                        : No0 L6 o: q3 t+ V2 ]2 t9 M6 J1 d
Forced                         : No& t& o3 ]7 I' j9 {/ t6 x1 T

: u1 r/ j5 x4 o+ K9 fAudio #12
) E9 u' S& @+ x/ a/ \/ {4 DID                             : 13. C9 W& d# W. i0 {" U% b2 L/ H1 D
Format                         : AC-3. F3 `2 V: n4 b) o
Format/Info                    : Audio Coding 3
' D8 W% K+ R4 `Codec ID                       : A_AC3
3 c. y. m. p: sDuration                       : 3 min 34 s
  Y  u& q8 y& W' m; u3 K3 g  TBit rate mode                  : Constant/ c$ S# }7 j  f1 z" Y9 t
Bit rate                       : 384 kb/s
4 o2 x% v: e$ b8 S5 HChannel(s)                     : 6 channels! N7 t! K8 C* j
Channel positions              : Front: L C R, Side: L R, LFE
: R( R% h6 H% J& T( Y, KSampling rate                  : 48.0 kHz1 O1 Z: J/ K; h7 n5 c. M. ?
Frame rate                     : 31.250 FPS (1536 SPF)1 k6 M) f4 B, h; C# J
Bit depth                      : 16 bits
6 X$ F( ~- p2 NCompression mode               : Lossy
3 R  r5 A' f" oDelay relative to video        : 9 ms
- F( v% s( m5 I7 @2 `Stream size                    : 9.83 MiB (1%)" c: \  D8 f- Q. C2 _  e, N
Title                          : clip12-0914
- n0 c  q6 M' ^Service kind                   : Complete Main9 H7 \5 q: v& e
Default                        : No. h( m4 D/ Y' \$ c6 W: T! T
Forced                         : No; w" h7 D7 k6 y# r, B

- V. b, H" i9 I: g2 i9 PAudio #13
: j) R  H+ {1 e) q7 ~8 ^ID                             : 14
, e/ @% A" i5 dFormat                         : AC-3
% I, E  `$ G. d$ d& q  o& f$ BFormat/Info                    : Audio Coding 3
) X. A& g% H2 [0 @) |9 ~Codec ID                       : A_AC3! X1 C: [! P$ n2 p1 k. c
Duration                       : 3 min 34 s4 a0 j. i: w# p% o7 n
Bit rate mode                  : Constant
$ J- r3 b5 Q1 x, e8 WBit rate                       : 384 kb/s. Y" \% Q: m; ~) `4 P! U
Channel(s)                     : 6 channels
% g4 ?* U, V8 F8 wChannel positions              : Front: L C R, Side: L R, LFE1 ]0 e3 r$ ~6 n; o7 ~
Sampling rate                  : 48.0 kHz* S8 ^3 \2 e8 U& o* k. w" F
Frame rate                     : 31.250 FPS (1536 SPF)" o9 O3 K( A% y! |- {0 Y
Bit depth                      : 16 bits) ?3 M1 J2 B, c$ R2 t1 P
Compression mode               : Lossy
0 N/ ?0 \8 \6 ^0 GDelay relative to video        : 10 ms
8 x7 V5 c; G5 q) m3 q. IStream size                    : 9.83 MiB (1%)
$ t/ k1 |3 C- b- g0 z" l" [# [" kTitle                          : clip13-0914_encore
0 j" ^) b8 v3 w2 e$ P9 xService kind                   : Complete Main
6 \& r( q& @+ r6 t) oDefault                        : No& B) G9 [* Y6 h$ S
Forced                         : No
! L3 r# x3 x& B3 B$ ?! w! P
5 g* T! Y8 U& Y) a- }Audio #14' x4 m% \+ X) a
ID                             : 15
7 f* W" N, Q2 rFormat                         : AC-3
2 E1 }  a! i5 o1 m# AFormat/Info                    : Audio Coding 3* I* h: c* j0 @- |
Codec ID                       : A_AC3
* w+ b9 t9 o7 ^" k& g) CDuration                       : 3 min 34 s
% m  M; l( m+ g7 B$ ?' i& xBit rate mode                  : Constant
# v" K/ ^- X! y0 ~Bit rate                       : 192 kb/s: }) E6 h2 \& }! V/ ]7 U
Channel(s)                     : 2 channels
( O/ T! s* t* DChannel positions              : Front: L R+ A( I/ r5 {$ w" g
Sampling rate                  : 48.0 kHz4 z4 s6 V- s$ I  t/ m
Frame rate                     : 31.250 FPS (1536 SPF)
3 u7 [* u1 p% ^% [- i6 cBit depth                      : 16 bits; I* _$ ]! z8 X' m& \! [" j0 {
Compression mode               : Lossy2 l; t! O! A9 Q
Delay relative to video        : 5 ms3 E7 T0 @  [: y
Stream size                    : 4.91 MiB (0%)
/ [+ f# d. D3 s7 V$ J4 M! tTitle                          : clip14-0919
7 @/ |; V( ~' p6 `% t: ?& |Service kind                   : Complete Main  s! i$ v9 U( E3 k
Default                        : No
! o, O5 d1 |) Z7 T: m( [( FForced                         : No
" W& e1 G) j. q2 _/ k7 t4 z1 @
6 {0 A4 v4 @. h. E. H/ v6 F0 R  pAudio #15
5 H! W6 W) P2 o( z0 i8 D6 ~* S3 PID                             : 16
% c: O1 E7 k6 AFormat                         : AC-30 J: ?6 `  y2 D0 h) W$ r4 H# U
Format/Info                    : Audio Coding 3
' U2 z8 O8 |7 Z3 g: v& \; W( D- c4 B/ jCodec ID                       : A_AC3  k% }( {# w6 w: E! m
Duration                       : 3 min 34 s( w: M) _5 T2 n
Bit rate mode                  : Constant
5 X  X% B7 H' ?) _Bit rate                       : 384 kb/s
: k! _' S2 b, F6 _2 ?Channel(s)                     : 2 channels% W+ b  f; o5 M; h% F* r# L4 A
Channel positions              : Front: L R
1 v" B/ E  D9 |' W$ t8 P/ u5 KSampling rate                  : 48.0 kHz
+ o8 l6 P- B0 z$ RFrame rate                     : 31.250 FPS (1536 SPF), |: H# H( s* y# B8 [  z  }* h
Bit depth                      : 16 bits
3 Q. [& b3 L* i) B( e5 t  y( xCompression mode               : Lossy$ S6 o3 j% T# v$ o- H( A5 }# A& z1 x
Delay relative to video        : 31 ms
0 @( o! [- |1 s1 K& X, e5 l" ]Stream size                    : 9.83 MiB (1%); S; }/ H3 @5 n! B; w  t. ^
Title                          : clip15-1007
  q3 y9 S* C4 M- D1 C! K1 P  W4 z) mService kind                   : Complete Main
$ V1 m4 d- Y; O7 Y0 k$ ~Default                        : No
* X6 c- M1 N2 E! p' p6 _! mForced                         : No9 S( u( L' J$ r4 x: L4 Y
6 [6 u8 L3 k2 E8 R. j. O) D1 F/ y
Audio #16
1 ]# s5 k/ A. bID                             : 17
- V  Z. Y2 Y# c" c- j) AFormat                         : AAC
' B/ l1 l0 S2 M& R0 c8 t9 HFormat/Info                    : Advanced Audio Codec: p# [9 r4 o& q* b2 R
Format profile                 : LC
5 z( C" |+ A, e2 ?- A; dCodec ID                       : A_AAC-2' K* `- \8 b% ?: N9 [9 S
Duration                       : 3 min 34 s0 r) p* V( F1 I! I" Y) }$ r, f
Bit rate                       : 197 kb/s4 p$ E, M: M& x1 O$ t, n% ^5 e% W' L5 t
Channel(s)                     : 2 channels
: J3 {* @; q# b$ yChannel positions              : Front: L R
& y4 a- ?' s0 H6 uSampling rate                  : 44.1 kHz
- k  c6 b6 ~% aFrame rate                     : 43.066 FPS (1024 SPF)+ K3 L4 d$ N, M2 }' [2 ~5 F
Compression mode               : Lossy2 ], r) X+ J* i4 H
Delay relative to video        : 6 ms
! E% S0 z+ {  |  i5 X  b6 Q2 g  aStream size                    : 5.05 MiB (0%), ~+ `. {9 {" Q# S& g3 h
Title                          : clip16-mvhyuna# y5 L8 f4 ^! K/ p2 M) Y6 |
Default                        : No; m/ ?2 U" W- X0 `3 Q$ h0 L
Forced                         : No
: i! r5 @; t8 T% s7 P7 m4 i9 j. g3 N7 Y% H
3 P" f- Y7 [: a  `' t: Z! i9 z$ e

. F" s' _, ~% C0 b8 Z: W0 v( r
* o" }  {6 Y5 y
' c, q. k/ F$ {5 c% S) b* V
; b  x1 O0 x1 [) j
. O5 \0 a% \1 R
1 A% W" C7 J5 ^7 j% u

評分

參與人數 1名聲 +10 精幣 +10 收起 理由
samay + 10 + 10 精品文章

查看全部評分


發表於 2019-1-22 23:47:35 | 顯示全部樓層
謝謝分享
回覆

使用道具 檢舉


發表於 2019-7-15 14:41:29 | 顯示全部樓層
感謝分享
回覆

使用道具 檢舉


發表於 2019-7-19 17:59:09 | 顯示全部樓層
感謝分享
回覆

使用道具 檢舉


發表於 2019-7-20 22:56:56 | 顯示全部樓層
感謝分享
回覆

使用道具 檢舉


發表於 5 天前 | 顯示全部樓層
感谢分享
回覆

使用道具 檢舉

您需要登錄後才可以回文 登錄 | 註冊

再次提醒,當您點擊發表回覆,視同您已經明白本討論區的版規,如不明白請先參見各版版規。

熱門推薦

JL AUDIO F113低音炮問題...
JL AUDIO F113低音炮問題.
請教一下各位.我的F113不知道為什麼會變成這樣.請問能怎麼救?
Sony 無線藍牙喇叭 SRS-XB22、SRS-XB32 重低音強力來襲
Sony 無線藍牙喇叭 SRS-XB
獨特聲光互動x 串聯立體音場 隨行綻放音樂派對亮點 Sony
Sony 全新運動耳機打造”型”動時尚
Sony 全新運動耳機打造”
#全球首款真無線降噪1 #防潑水 #重低音WF-SP700N釋放自由聽感無
HD.Club 精研新氣象(精研總部裝修全紀錄,圖爆多)
HD.Club 精研新氣象(精研
HD.Club 精研新氣象 這個 logo前幾年就設計好的,不過都沒空處理
BenQ 推出HDR舒視屏護眼螢幕EW3270U
BenQ 推出HDR舒視屏護眼螢
發展獨家類瞳孔技術 復刻視界 帶來雙倍舒視 護眼螢幕領導品牌

聯絡我們| 問題反映| 小黑屋| 手機版| Archiver|  本網站特別聘請 蔡家豪律師 為本站法律顧問

快速回覆 返回頂部 返回列表