查看: 823|回覆: 2
收起左側

[韓國TV] 110910 Anibox GSL Final - Apink cut

[複製連結]

發表於 2011-9-13 18:34:47 | 顯示全部樓層 |閱讀模式

馬上註冊,結交更多好友,享用更多功能,讓你輕鬆玩轉社區。

您需要 登錄 才可以下載或查看,沒有帳號?註冊

x
  • I Don't Know
  • It Girl

  y2 y) |- ?" j$ c+ I) l$ n2 G2 T abbr_4d2ef9f5945dd34d8858c6038fcfd45e.jpg ' e1 d, c# |: o4 [3 L7 m+ Z) ~" F5 A
General #0/ B' a" J* Y: f& x: k: I  L
    ID : 0 (0x0)
; @/ U" A$ a/ |( @( G. O) c    Format : MPEG-TS
6 X. d; k) x7 K3 B2 P7 i    File size : 1.29 GiB, }$ D# ?6 F4 W# Y$ g
    Duration : 8mn 58s8 \# m' K4 g; P$ z; _( A
    Overall bit rate : 20.7 Mbps+ S' `. M: f! U( M4 c) R  d
  Video #1001
8 P7 `$ ^/ @4 N3 x' |6 u    ID : 1001 (0x3E9)$ m/ F* {+ l4 i/ |, a8 J
    Menu ID : 1 (0x1)
6 T) K6 M* R' J- K) r    Format : MPEG Video8 Z* a) V9 ]/ G) l/ t
    Format version : Version 20 ~7 M/ A6 B, L, a+ j
    Format profile : Main@High- z, p* E1 {& q7 A" S
    Format settings, BVOP : Yes# ]3 [" p9 v2 d
    Format settings, Matrix : Default0 ~8 q: a3 X9 W8 b5 U) X6 R, g
    Format settings, GOP : M=3, N=12$ u" K. [. b; W6 Q
    Codec ID : 2
( j' _! X7 s/ }- w$ ?$ _8 i    Duration : 8mn 57s
8 |" S8 z9 H% _+ A& f- d: t* N    Bit rate mode : Variable% |8 R, W: |8 H3 F! s
    Bit rate : 20.0 Mbps
3 n0 f% c6 P9 Z- c3 W    Width : 1 920 pixels  X; u; {" \! j# \+ P. M
    Height : 1 080 pixels
8 z# z! M5 `( q$ |6 ]    Display aspect ratio : 16:9$ C& O$ \- h- E" \) B3 E4 X
    Frame rate : 29.970 fps; Q  _6 s3 x% D- B
    Color space : YUV
; r2 b/ C6 c' a  H$ f3 |    Chroma subsampling : 4:2:0% k- r* o* ^" A  {$ @
    Bit depth : 8 bits1 B1 v4 Y& L* n0 E
    Scan type : Interlaced
3 I6 \7 V6 M# p  H* h( n& B, I/ l    Scan order : Bottom Field First
7 M( W! T, x* {& z, S- i$ X    Compression mode : Lossy6 Y( w0 W& \, o# L# m% {6 p6 i9 S
    Bits/(Pixel*Frame) : 0.322& R6 J* F/ O* p
    Stream size : 1.22 GiB (94%)
& @/ [9 @  S! V+ C" X" e; @1 c  Audio #1002  }) k1 W. N/ H/ Z
    ID : 1002 (0x3EA)
7 H+ ]1 B9 w/ Y* i+ U6 }; c    Menu ID : 1 (0x1)
: [% {$ A- z! L' H    Format : MPEG Audio, Q8 `$ o4 F% U: [3 i
    Format version : Version 12 q8 s( ?, p" q, i7 e
    Format profile : Layer 24 [' N8 q( U: Y3 G6 D
    Codec ID : 39 b# u7 f- H- f2 V( F& b9 o1 D
    Duration : 8mn 58s
% N8 e; N1 \) e( G. N" [    Bit rate mode : Constant& G0 o: u; E% W! [* \2 a$ y* V8 D2 y1 I
    Bit rate : 128 Kbps# j4 a% F9 v/ f
    Channel(s) : 2 channels! v0 _4 w* g. e1 j$ i
    Sampling rate : 48.0 KHz) }) F, V, {5 t5 Z1 F  ~7 Q, l% Q
    Compression mode : Lossy
6 m' w" h+ @! A6 P6 F    Delay relative to video : -505ms( k5 @; B4 j7 S! P: m3 v$ n; K
    Stream size : 8.21 MiB (1%)

20110910.Anibox.GSLAug.Final.에이핑크CUT.Component.1080i.GuylianSS.tp.torrent

13.1 KB, 閱讀權限: 11, 下載次數: 53

評分

參與人數 1名聲 +6 精幣 +6 收起 理由
qoo555 + 6 + 6 精品文章

查看全部評分


發表於 2011-9-13 19:33:35 | 顯示全部樓層
娜恩的格子裝好可愛呢
9 u: [1 C6 y6 j! `看過飯拍的3 \( A8 R6 {- o
台下應援聲不斷
回覆 支持 反對

使用道具 檢舉


發表於 2019-9-10 21:44:54 | 顯示全部樓層
怎样可以下载这个附件呢?
7 l6 s  b# N( l  T( U- |0 b
回覆 支持 反對

使用道具 檢舉

您需要登錄後才可以回文 登錄 | 註冊

再次提醒,當您點擊發表回覆,視同您已經明白本討論區的版規,如不明白請先參見各版版規。

熱門推薦

FIBBR Ultra 8K HDMI光纖線 開箱
FIBBR Ultra 8K HDMI光纖
為配合8K 來臨的HDMI 2.1 規格,FIBBR推出了名為 Ultra8K HDMI
BenQ 推出HDR舒視屏護眼螢幕EW3270U
BenQ 推出HDR舒視屏護眼螢
發展獨家類瞳孔技術 復刻視界 帶來雙倍舒視 護眼螢幕領導品牌
奇美推國產市售最大 120吋液晶電視!
奇美推國產市售最大 120吋
奇美家電繼全台首發98吋後,再度展示其優異的技術力,推出國產最
Dolby Atmos + 4K 三階段,小小劇院努力中
Dolby Atmos + 4K 三階段
本帖最後由 oldlin8 於 2018-10-16 05:58 PM 編輯 本文章最
pioneer sc-LX59亮麗登場!
pioneer sc-LX59亮麗登場
本文章最後由 小許 於 2015-10-28 20:57 編輯 千呼萬喚pionee

聯絡我們| 問題反映| 小黑屋| 手機版| Archiver|  本網站特別聘請 蔡家豪律師 為本站法律顧問

快速回覆 返回頂部 返回列表