查看: 761|回覆: 2
收起左側

[韓國TV] 110910 Anibox GSL Final - Apink cut

[複製連結]

發表於 2011-9-13 18:34:47 | 顯示全部樓層 |閱讀模式

馬上註冊,結交更多好友,享用更多功能,讓你輕鬆玩轉社區。

您需要 登錄 才可以下載或查看,沒有帳號?註冊

x
  • I Don't Know
  • It Girl

# [2 Z, D- }8 t% H' q abbr_4d2ef9f5945dd34d8858c6038fcfd45e.jpg 4 W, N8 ]# r/ U/ U* I
General #0
  k1 d% A. S! S8 C    ID : 0 (0x0)0 i* i" G0 D8 F& i" F& [
    Format : MPEG-TS
7 S1 Q3 G0 u0 O7 s$ p% w9 d7 O    File size : 1.29 GiB; C6 J$ \4 Y, d3 p" X: A  c1 A
    Duration : 8mn 58s
0 D: _3 n7 `3 G' |5 r    Overall bit rate : 20.7 Mbps( L8 Y' g+ a: y* @8 P+ ^
  Video #10015 Q- R  p& s- R3 _! _7 }
    ID : 1001 (0x3E9)9 a! m9 H  ?9 N0 m* T0 {5 K
    Menu ID : 1 (0x1)
' x4 G% s; \5 O    Format : MPEG Video( r- l( T/ f7 c+ ?  m
    Format version : Version 20 J* S1 F: \+ E- M+ K
    Format profile : Main@High
1 S% K. }5 ?& e6 N8 t9 ?3 B    Format settings, BVOP : Yes
/ h, y% b3 G/ L3 w    Format settings, Matrix : Default
% Z" M/ a) ]  x( J- t    Format settings, GOP : M=3, N=12
( [# e1 }6 X. @1 Y/ |7 R    Codec ID : 2
/ W4 J- [$ \' b  K  [$ _' D' k    Duration : 8mn 57s- `( @" D  m) j7 f* E
    Bit rate mode : Variable  `$ I  p# L8 q3 F2 [9 h4 ]" ?
    Bit rate : 20.0 Mbps
* [9 H. ~/ ?5 X1 U$ ]7 ]5 G0 j: j    Width : 1 920 pixels. I+ i6 \1 `" R/ i$ J
    Height : 1 080 pixels
8 |. I5 C* [2 a2 H* y$ N    Display aspect ratio : 16:9$ C7 O/ s& @- I) e
    Frame rate : 29.970 fps
- w/ G1 S+ T- }* I2 G% R    Color space : YUV3 r( ^$ o* U8 M
    Chroma subsampling : 4:2:00 j) e/ r4 c; D9 L. W" o; Y3 ]
    Bit depth : 8 bits; q2 O8 p4 w/ A& N4 C/ r9 H* y
    Scan type : Interlaced& d1 q7 K; M, F
    Scan order : Bottom Field First. w$ s' ^( Z5 z. T
    Compression mode : Lossy
' ^4 S5 W, w* Y$ t+ V    Bits/(Pixel*Frame) : 0.322
6 S$ z4 Y. t% `8 s2 Z    Stream size : 1.22 GiB (94%)+ l, u& F8 B3 U" W
  Audio #10027 E6 W) J$ q# M2 z* K; j$ ]: ~
    ID : 1002 (0x3EA)
% g) z9 L. [- _# C0 m    Menu ID : 1 (0x1)1 o" _* {, w$ }  `: l
    Format : MPEG Audio  H' A& |  M6 z" n: h8 l
    Format version : Version 1
/ G8 f% ~& X+ s* s4 t  `! @" f    Format profile : Layer 2" Y1 x8 z  A6 j
    Codec ID : 3+ f- R; u, N2 a
    Duration : 8mn 58s! @1 m- \4 W8 ]% v/ ^
    Bit rate mode : Constant
8 ^2 W* g( _6 u4 L    Bit rate : 128 Kbps
! h+ ~  ~" l; a* ~1 b( Y0 y; ^    Channel(s) : 2 channels7 I0 Y' g- O% O, I
    Sampling rate : 48.0 KHz
/ G: x  K, p- ?4 q( D6 N    Compression mode : Lossy3 \3 j4 U! B, y0 T5 U
    Delay relative to video : -505ms) p7 w' w9 W. G+ C4 d$ ^2 {; h7 H1 w& h7 b
    Stream size : 8.21 MiB (1%)

20110910.Anibox.GSLAug.Final.에이핑크CUT.Component.1080i.GuylianSS.tp.torrent

13.1 KB, 閱讀權限: 11, 下載次數: 53

評分

參與人數 1名聲 +6 精幣 +6 收起 理由
qoo555 + 6 + 6 精品文章

查看全部評分


發表於 2011-9-13 19:33:35 | 顯示全部樓層
娜恩的格子裝好可愛呢
1 D$ {) |; r9 u0 I看過飯拍的) k' B6 p  u* B
台下應援聲不斷
回覆 支持 反對

使用道具 檢舉


發表於 2019-9-10 21:44:54 | 顯示全部樓層
怎样可以下载这个附件呢?
' f# R/ b( v( z7 I
回覆 支持 反對

使用道具 檢舉

您需要登錄後才可以回文 登錄 | 註冊

再次提醒,當您點擊發表回覆,視同您已經明白本討論區的版規,如不明白請先參見各版版規。

熱門推薦

FIBBR Ultra Pro2眾測:21GB的光纖HDMI插入OLED平板電視真實屏攝
FIBBR Ultra Pro2眾測:21
沒有十全十美的尤物,也沒有一無是處的劣品。對於任何一個新鮮的
帶動4K經濟就是要靠這一味,韓國4K UHD頻道強力放送(下載-少女時代L.A演出現場)
帶動4K經濟就是要靠這一味
目前韓國已經擁有5個UHD超高清頻道,分別是:UMAX, CJ E&M
老漢自己亂設計的150吋不全套劇院(電源與布幕)
老漢自己亂設計的150吋不
廢話不多說,圖多文字少,因為書念得不多,詞窮,而且文章沒有連
小試身手就可以越級打怪-秦朝3115D
小試身手就可以越級打怪-
音響其實是比較級的東西,早期剛開始接觸沒幾年的時候都會有很比
2019過年前音響更新及大掃除
2019過年前音響更新及大掃
2019過年前音響大掃除: 前言:小弟多年買家電及音響大掃除的過程

聯絡我們| 問題反映| 小黑屋| 手機版| Archiver|  本網站特別聘請 蔡家豪律師 為本站法律顧問

快速回覆 返回頂部 返回列表