查看: 26612|回覆: 342
收起左側

[韓國MV] T-ara - Number 9 [繁中特效字幕] [1080p] [mp4] [373M/百度]

[複製連結]

發表於 2013-10-11 15:09:04 | 顯示全部樓層 |閱讀模式

馬上註冊,結交更多好友,享用更多功能,讓你輕鬆玩轉社區。

您需要 登錄 才可以下載或查看,沒有帳號?註冊

x
T妞穿旗袍身材好曼妙喔<3& k7 C( Y( W; k+ I
話說No.9是什麼意思阿...不懂?  `* k/ y2 `4 t
I'm in the duck...in the duck...呱呱XD
7 P6 F) ?! m* F& Q' H

, m2 P) v! |$ o2 e
# |5 j+ W' F% K/ _4 z
3 R. B5 p0 ?+ B3 @1 u- f: i1 ?
  l  l  z2 R: l0 \6 C5 O2 Z
                               
登錄/註冊後可看大圖
& d) o+ ^+ T+ q7 `

7 W* s; Q8 r  Y9 |                               
登錄/註冊後可看大圖
9 O( x- L7 R( Q8 h* N2 y( `
; A0 T6 K: L. q' v- z  }
                               
登錄/註冊後可看大圖

( X+ o; h, ]( j- ^% u1 I

  m+ L; Y4 J" L9 `) V) [* G                               
登錄/註冊後可看大圖
- }! g  E7 ~6 N5 S) n; x- _! G
: z- o+ j! W2 Y* }
                               
登錄/註冊後可看大圖
. u3 U# Y) n0 @2 D# S. L
( d- @; j& e0 s, b5 w% O7 {; H
                               
登錄/註冊後可看大圖
' q, V! v# w" t: K% a; Q7 B0 M
' C, k! C; h& F
                               
登錄/註冊後可看大圖

! F$ P6 @$ W  P) f& N
4 n( Z3 j/ O0 ]' @/ ]7 N
                               
登錄/註冊後可看大圖

; |6 f9 S1 [; ~3 z& w; D* s$ b
D:\T-ara - Number 9 [繁中特效字幕] [1080p] [pureland].mp4: z: S3 n! B+ i
  General
) j* A' o* r2 I, L/ D    Complete name : D:\T-ara - Number 9 [繁中特效字幕] [1080p] [pureland].mp4
, _, b" }! ?4 A, h    Format : MPEG-4
# e. f9 v% [' A  F) M- U    Format profile : Base Media6 w- p8 I# x7 j# N3 P
    Codec ID : isom  G2 w1 l( C1 g6 c
    File size : 373 MiB) A4 E0 b2 Y% |; |: l0 e8 C( ^7 O
    Duration : 3mn 53s
4 E' n# N, v; Q( v+ v! r$ h    Overall bit rate mode : Variable
; C' B7 M2 J0 j/ K" x    Overall bit rate : 13.4 Mbps! B% v% Q! _2 v: Q0 M) ]; H, Z/ K& \0 t
    Encoded date : UTC 2013-10-11 05:19:25
- Q) E3 n& i/ w2 s) ]) e# X    Tagged date : UTC 2013-10-11 05:19:258 V5 C$ ?5 a( ], I0 w! G2 H. [
  Video #1
/ y( e+ ?$ N/ X% w4 y+ B' I: m    ID : 1
) H6 N& c/ k# L. O    Format : AVC
: s/ R: p6 f( Q/ n& D    Format/Info : Advanced Video Codec! n* v$ f  s, U- v+ k
    Format profile : Main@L4.0& l# L  W$ e" S) m9 ^. b8 B
    Format settings, CABAC : Yes  P1 X3 H2 V7 d+ M0 a( c6 d6 E
    Format settings, ReFrames : 2 frames5 C, Y" K  V, ^2 ^" Q6 ~: N$ Y  O
    Format settings, GOP : M=2, N=29
4 B$ I7 r0 n% [# ?& ]# _) e    Codec ID : avc1# i+ }: p. W7 q* s* [: j
    Codec ID/Info : Advanced Video Coding
5 \( D" [, n( K, _/ [. e+ F    Duration : 3mn 53s' f/ f) q4 o9 v1 C
    Bit rate : 13.1 Mbps
7 \" Z6 t8 X* l8 J1 ^    Maximum bit rate : 19.7 Mbps# y( M4 I+ W9 P/ G5 b2 X* x: S  D
    Width : 1 920 pixels4 D) l: r+ D$ s0 \% Y
    Height : 1 080 pixels& {9 j' F0 Q2 }8 P7 c
    Display aspect ratio : 16:9  A) d: J& z, B9 B0 z% i/ D
    Frame rate mode : Variable* |" N2 V. ?/ l/ ?, c
    Frame rate : 29.970 fps. }2 L. n. q2 S0 }
    Minimum frame rate : 29.940 fps
, D* I( g  ?5 D9 F# T& F1 j    Maximum frame rate : 29.970 fps5 V# X/ f! [: }& Y' {
    Color space : YUV
) H8 W2 L/ Q' [9 _- f1 [9 M    Chroma subsampling : 4:2:0) E; U5 Q2 x# F( F
    Bit depth : 8 bits
0 l0 ~) B! T& r  d% p9 p. b    Scan type : Progressive
" k1 y, t) n# ]1 {. U  b* n& s    Bits/(Pixel*Frame) : 0.210
& k# r/ v3 R; ?$ r    Stream size : 364 MiB (98%)  G1 P2 X& |" a" g, D+ S2 l
    Language : English+ a4 Z! ^; X$ `5 ]
    Encoded date : UTC 2013-10-11 05:17:23/ ]7 f& B$ a7 T$ o4 E3 ~5 e
    Tagged date : UTC 2013-10-11 05:19:25' ^, p3 ~: L9 D/ F
  Audio #2
  z' T9 J# P+ j6 [" T    ID : 2+ I( B6 ]* Q: {9 I* B! z; H5 J
    Format : AAC8 S$ w2 R- `6 Z4 M! z( c3 ^
    Format/Info : Advanced Audio Codec5 s( i8 J/ Q8 u* o7 Y# M
    Format profile : LC3 E; s. v3 F. Y( _" m
    Codec ID : 400 U2 }1 a6 N2 G& W) [; T" N
    Duration : 3mn 53s+ M9 w; Y1 a) z) l" ]* \* [! w
    Bit rate mode : Variable9 {, Q, A+ l" {3 L. M) z6 r
    Bit rate : 317 Kbps) A# [+ K4 i) g% ^0 L
    Maximum bit rate : 325 Kbps3 _7 _: U: z0 h. B& S0 c3 i! m5 F
    Channel count : 2 channels: Y4 Y; F; C. ?3 n+ q/ E  i
    Channel positions : Front: L R0 a$ J/ y: X1 a' e: a$ W' w% }" J
    Sampling rate : 48.0 KHz( K1 R! e. {+ Z1 l- ~
    Compression mode : Lossy
8 h6 w1 P! b, \- v' W' K    Stream size : 8.85 MiB (2%)
4 y8 M' I% w' F% c    Language : Korean8 @, n6 i* a' z  m+ F. I( Z$ |
    Tagged date : UTC 2013-10-11 05:19:25

4 e. j5 O7 E& k1 a* {
' ~( `# u& w3 U7 [( w載點:
. Y0 u: k! g' U* m( A+ k9 T% W. e
訪客,如果您要查看本文隱藏內容請回覆

評分

參與人數 2名聲 +26 精幣 +21 收起 理由
hkskw + 20 + 15 精品文章
twins-jacky + 6 + 6 精品文章

查看全部評分


發表於 2013-10-11 15:16:49 | 顯示全部樓層
T-ara 這首新歌很好聽...謝謝分享
回覆 支持 反對

使用道具 檢舉


發表於 2013-10-11 15:20:21 | 顯示全部樓層
又有T-ara的新歌可以看了4 [( k* e. }0 h" x9 C
已看過其他版本 但就是聽不懂唱啥" _* W. R& r( i/ u( T- L% r* t
多謝大大分享中文字幕版 這下可好好欣賞了4 ^: L5 A; V9 o) y! o7 K) F$ {0 U
回覆 支持 反對

使用道具 檢舉


發表於 2013-10-11 16:12:16 | 顯示全部樓層
新歌真的很好聽,MV更是經典.T-ara最近蠻活躍的~~謝謝分享
回覆 支持 反對

使用道具 檢舉


發表於 2013-10-11 16:28:54 | 顯示全部樓層
网上看到的解释:7 W; Q5 [1 n4 f" g- ~
   No.9是Love potion no.9 的缩写是 1966年由the searcher演唱的英文歌 ,歌词是一个落魄的汉纸去找一个女人调配名为 Love potion no.9的爱情灵药 感觉可以是将所爱之人比喻成这款爱情灵药 也有可能理解成将爱情灵药拟人化 来表现那份陷入爱情里面伤痛的模样

評分

參與人數 1名聲 +2 精幣 +2 收起 理由
pureland + 2 + 2 熱心助人^^

查看全部評分

回覆 支持 反對

使用道具 檢舉


發表於 2013-10-11 17:02:26 | 顯示全部樓層
VERY BAD SITUATION FOR TARA NOW FACING IN KOREA, THEY REALLY NEED A SONG TO BREAK IT OUT, HOPE THEY CAN DO IT!,
回覆 支持 反對

使用道具 檢舉


發表於 2013-10-11 17:23:43 | 顯示全部樓層
顶一个,谢谢分享,喜欢
回覆 支持 反對

使用道具 檢舉


發表於 2013-10-11 17:27:59 | 顯示全部樓層
t-ara終於出新歌了
* d4 e: a; @8 ^期待好久了阿 XD
回覆 支持 反對

使用道具 檢舉


發表於 2013-10-11 17:30:48 | 顯示全部樓層
T妞真的是太正了; n$ X3 \# P. C
歡迎回歸
回覆 支持 反對

使用道具 檢舉


發表於 2013-10-11 17:33:28 | 顯示全部樓層
又是一首旋律讓人很中毒的歌!" K: G, R4 b- P' J# y% A
聽久了會上癮!
回覆 支持 反對

使用道具 檢舉


發表於 2013-10-11 17:33:46 | 顯示全部樓層
T妞的MV必定收藏了呢~
, t: Y9 {$ x5 E7 H; `* |不能錯過呢~9 X8 V6 J/ W7 w1 ^2 ^+ p
謝謝樓主分享特效字幕版呢
回覆 支持 反對

使用道具 檢舉


發表於 2013-10-11 18:06:22 | 顯示全部樓層
終於有點熱鬧了..TARA這首很好聽 希望成績能好
回覆 支持 反對

使用道具 檢舉


發表於 2013-10-11 18:11:15 | 顯示全部樓層
中字版的耶!!!!+ G* m" `0 W  u; Z
6 }! P& G5 Z, P& w& G# Q
這首也蠻好聽的!!!
6 M( I: Z7 Q6 ?5 O! N) E
回覆 支持 反對

使用道具 檢舉


發表於 2013-10-11 18:52:32 | 顯示全部樓層
來看中文字幕
- P+ U9 B/ K3 W' O8 f6 I2 }. o不然真的聽不懂唱什麼= ="; Y) o* N# d9 ?2 f- f
兩首素妍都是主唱~
回覆 支持 反對

使用道具 檢舉


發表於 2013-10-11 19:15:40 | 顯示全部樓層
发展的不错嘛  出道能有2年的时间?  这次少了一个人吧
回覆 支持 反對

使用道具 檢舉


發表於 2013-10-11 19:27:44 | 顯示全部樓層
T-ARA新歌 絕對不能錯過
: n$ R6 B+ X! A/ [( p+ M2 j$ T等好久了 謝謝樓主分享
回覆 支持 反對

使用道具 檢舉


發表於 2013-10-11 19:28:14 | 顯示全部樓層
T-ARA又出新歌了!
  u4 x5 e% ^1 [% K上次回歸已經有一段時間了: c( k3 B& K6 u
不知道風格是否會有變化
回覆 支持 反對

使用道具 檢舉


發表於 2013-10-11 19:28:55 | 顯示全部樓層
這首新歌蠻好聽的
- N* g6 @, a+ l
% I( U5 ~3 k) V% P* d$ {特別是孝敏的鏡頭好多喔
回覆 支持 反對

使用道具 檢舉


發表於 2013-10-11 19:33:06 | 顯示全部樓層
Master is just too fast and greaterhelp to us
* j: I  C" T/ F; b" ]0 Y! \Thanks for sharing
回覆 支持 反對

使用道具 檢舉


發表於 2013-10-11 19:33:24 | 顯示全部樓層
又有T-ara的新歌可以看了- \9 t$ _7 O& L: K/ x, @( h7 R+ e
已看過其他版本 但就是聽不懂唱啥這首新歌蠻好聽的等好久了 謝謝樓主分享
回覆 支持 反對

使用道具 檢舉

您需要登錄後才可以回文 登錄 | 註冊

再次提醒,當您點擊發表回覆,視同您已經明白本討論區的版規,如不明白請先參見各版版規。

熱門推薦

影音界雙盟!
影音界雙盟!
一段令AV迷們都記得的往事!曾經雄霸一方AV霸主oppo,在去年年底
論壇菜鳥也來寫篇開箱文~~Denon X2300W日規機參上!!
論壇菜鳥也來寫篇開箱文~~
本文章最後由 chipper0216 於 2017-3-30 16:48 編輯 就在過年
Huawei 華為計劃在2019年內推出一款支援5G的8K電視
Huawei 華為計劃在2019年
早在這之前就一直有多方消息指出Huawei將進軍智能電視領域,而
BenQ 推出HDR舒視屏護眼螢幕EW3270U
BenQ 推出HDR舒視屏護眼螢
發展獨家類瞳孔技術 復刻視界 帶來雙倍舒視 護眼螢幕領導品牌
Sony 全新運動耳機打造”型”動時尚
Sony 全新運動耳機打造”
#全球首款真無線降噪1 #防潑水 #重低音WF-SP700N釋放自由聽感無

聯絡我們| 問題反映| 小黑屋| 手機版| Archiver|  本網站特別聘請 蔡家豪律師 為本站法律顧問

快速回覆 返回頂部 返回列表