查看: 26048|回覆: 339
收起左側

[韓國MV] T-ara - Number 9 [繁中特效字幕] [1080p] [mp4] [373M/百度]

[複製連結]

發表於 2013-10-11 15:09:04 | 顯示全部樓層 |閱讀模式

馬上註冊,結交更多好友,享用更多功能,讓你輕鬆玩轉社區。

您需要 登錄 才可以下載或查看,沒有帳號?註冊

x
T妞穿旗袍身材好曼妙喔<31 |. V+ b% |" ~2 Y8 b( a
話說No.9是什麼意思阿...不懂?
, B1 b  D4 ?9 I. oI'm in the duck...in the duck...呱呱XD

) |9 C4 S5 L' j  m  w3 o) @+ ]8 g' b) z7 o, R5 @

, h5 v% i3 ]2 E. t4 \( F, W# f8 ^3 R! Y9 i7 v' o* e% C
- Y/ m& Q* A2 m" U
                               
登錄/註冊後可看大圖
# V- J! l3 D: ^9 [' k8 M

3 Q2 L8 r0 Q6 n! q  `' O  j                               
登錄/註冊後可看大圖
/ g, w; Z) @% l" P7 `% A" u0 m1 J

: _! [8 n5 P9 l0 {8 G8 t3 k# q                               
登錄/註冊後可看大圖
2 K% s  L4 R/ h$ z
, T! ~9 ^- W! `/ K* _
                               
登錄/註冊後可看大圖

: g2 D3 J. @& A3 H. ?/ y9 o

% G- Q* J7 F; k) X8 {! [9 |                               
登錄/註冊後可看大圖
* Y. w+ }& H) o) ?0 B

6 E+ T5 Y+ [! `$ B# L, H% r                               
登錄/註冊後可看大圖

; q) B5 h/ Z0 N

- i7 t# R& y" g0 \8 t, `: X  M& ^                               
登錄/註冊後可看大圖

9 m" }' {/ |' Z7 o; g' C

/ e4 O" i% v# J9 J: @                               
登錄/註冊後可看大圖

+ X# n9 N" n* l1 F2 d8 C' M' |; ^9 Y
D:\T-ara - Number 9 [繁中特效字幕] [1080p] [pureland].mp47 D# Z' l7 A6 z7 n- h1 D, o$ E
  General
. G# l+ y) D: o! K9 O; C6 J; H5 r    Complete name : D:\T-ara - Number 9 [繁中特效字幕] [1080p] [pureland].mp4
/ y8 u) K, q+ `! W    Format : MPEG-4' C  @' D' g. R! r! `6 @2 J" Z
    Format profile : Base Media
9 W4 {1 O+ \( A) M) `    Codec ID : isom
. T# f7 `' `: O$ T5 \. J    File size : 373 MiB2 m8 b/ B5 Z% M8 S" G1 {4 V) T
    Duration : 3mn 53s- _" z! k# j! e
    Overall bit rate mode : Variable; t- [* K! S* h  Q  z: M  I$ e- |
    Overall bit rate : 13.4 Mbps
& Y+ N2 R* @3 {* j! W    Encoded date : UTC 2013-10-11 05:19:25
+ H( w* c# \9 r$ x3 e0 ?5 e    Tagged date : UTC 2013-10-11 05:19:25  X$ A# C' g6 o, H& ^; B: `
  Video #1. M- M/ h* P$ u( ?: ~( H
    ID : 1# w5 P4 W4 C- X% Z4 s
    Format : AVC
% x% a% z3 I* t    Format/Info : Advanced Video Codec, v, [. }; J$ ^" ~/ ^7 x; ~
    Format profile : Main@L4.03 s! u+ \( J1 X$ V7 x
    Format settings, CABAC : Yes" W: M$ N# G& R
    Format settings, ReFrames : 2 frames# ?- x9 l" y2 \+ V
    Format settings, GOP : M=2, N=293 C' y' ~2 R% I
    Codec ID : avc1
( M) O" ?8 Q3 k    Codec ID/Info : Advanced Video Coding) J5 l+ X& J) |! I
    Duration : 3mn 53s
0 Q* l2 K& t% e: h1 @: n    Bit rate : 13.1 Mbps
" V( b3 u) n0 g0 U" v! V  i    Maximum bit rate : 19.7 Mbps
1 e' @0 u5 M6 D9 T) u+ ?3 J. m3 h1 `+ k    Width : 1 920 pixels
. V0 M8 c$ W8 [3 p' x    Height : 1 080 pixels
, O2 W: j8 h4 d" E9 o% `" P8 S    Display aspect ratio : 16:9: Q( z' g; s* x' A# z
    Frame rate mode : Variable  M$ w$ O4 ~+ I+ w
    Frame rate : 29.970 fps
1 k; c" q0 }) k9 l/ t# n& [    Minimum frame rate : 29.940 fps5 D, ^& l+ C$ U' ]$ ?! E7 E7 f7 ]
    Maximum frame rate : 29.970 fps
3 O: [* B* W' {" u    Color space : YUV6 R8 I! v, P6 P1 I6 o
    Chroma subsampling : 4:2:09 U+ z4 E. v$ W( A
    Bit depth : 8 bits& [. }$ @! r6 }& t2 R+ {
    Scan type : Progressive
" ^' A' _+ Z  V) o6 X/ H, {) V( f    Bits/(Pixel*Frame) : 0.210" }; X/ |8 f3 B* x
    Stream size : 364 MiB (98%)9 a$ G- O5 q7 N( q
    Language : English
' s2 `5 a2 h) y" r0 w    Encoded date : UTC 2013-10-11 05:17:23  q* J+ e5 U% W2 T2 j  u
    Tagged date : UTC 2013-10-11 05:19:25/ c8 t( s6 J( ~( \3 S, k" U  l
  Audio #29 i/ J( f0 d1 W, A( e( J
    ID : 2
. J9 M. R/ y0 |$ Y    Format : AAC
0 X! I9 x" W: Q4 b. u    Format/Info : Advanced Audio Codec* H$ B3 e' @0 x# ^) i& R
    Format profile : LC) m" e# X% E  m* Z
    Codec ID : 40
: l( e' |$ _. o1 h7 i& V    Duration : 3mn 53s
- U' u/ Y0 b. y7 O& y1 M% r    Bit rate mode : Variable5 S" e$ K; J, F) t* X' v
    Bit rate : 317 Kbps0 d7 Y/ b3 K: x! m
    Maximum bit rate : 325 Kbps
) }! `; k& N0 J& s6 X    Channel count : 2 channels. d2 P% k6 R# n# f3 [; x3 s
    Channel positions : Front: L R
7 d' L6 i0 }6 s, X    Sampling rate : 48.0 KHz6 L( e) `1 _% }
    Compression mode : Lossy
; N9 U* Z9 _0 f1 t+ A    Stream size : 8.85 MiB (2%)
, }# `1 V/ P% c  ~6 \" G- [8 b  P    Language : Korean
0 T7 v$ f0 f- q    Tagged date : UTC 2013-10-11 05:19:25
9 M& V" b1 u$ W# H/ Q

  \0 G& D# Z# H6 u. M: K6 t載點:) m% U) T" L5 Q  S3 A
訪客,如果您要查看本文隱藏內容請回覆

評分

參與人數 2名聲 +26 精幣 +21 收起 理由
hkskw + 20 + 15 精品文章
twins-jacky + 6 + 6 精品文章

查看全部評分


發表於 2013-10-11 15:16:49 | 顯示全部樓層
T-ara 這首新歌很好聽...謝謝分享
回覆 支持 反對

使用道具 檢舉


發表於 2013-10-11 15:20:21 | 顯示全部樓層
又有T-ara的新歌可以看了
( `- z% i4 L/ _8 @- W  s, U" n: ~已看過其他版本 但就是聽不懂唱啥
5 e! ^. d% s1 H1 @- _* u多謝大大分享中文字幕版 這下可好好欣賞了
6 J$ l* s# H/ v/ m) W
回覆 支持 反對

使用道具 檢舉


發表於 2013-10-11 16:12:16 | 顯示全部樓層
新歌真的很好聽,MV更是經典.T-ara最近蠻活躍的~~謝謝分享
回覆 支持 反對

使用道具 檢舉


發表於 2013-10-11 16:28:54 | 顯示全部樓層
网上看到的解释:+ T5 O( R# ~. A/ K3 j
   No.9是Love potion no.9 的缩写是 1966年由the searcher演唱的英文歌 ,歌词是一个落魄的汉纸去找一个女人调配名为 Love potion no.9的爱情灵药 感觉可以是将所爱之人比喻成这款爱情灵药 也有可能理解成将爱情灵药拟人化 来表现那份陷入爱情里面伤痛的模样

評分

參與人數 1名聲 +2 精幣 +2 收起 理由
pureland + 2 + 2 熱心助人^^

查看全部評分

回覆 支持 反對

使用道具 檢舉


發表於 2013-10-11 17:02:26 | 顯示全部樓層
VERY BAD SITUATION FOR TARA NOW FACING IN KOREA, THEY REALLY NEED A SONG TO BREAK IT OUT, HOPE THEY CAN DO IT!,
回覆 支持 反對

使用道具 檢舉


發表於 2013-10-11 17:23:43 | 顯示全部樓層
顶一个,谢谢分享,喜欢
回覆 支持 反對

使用道具 檢舉


發表於 2013-10-11 17:27:59 | 顯示全部樓層
t-ara終於出新歌了
* ]8 G5 k" F8 u; N+ F! s期待好久了阿 XD
回覆 支持 反對

使用道具 檢舉


發表於 2013-10-11 17:30:48 | 顯示全部樓層
T妞真的是太正了" X# ^2 G1 @) V8 W- r3 {1 t
歡迎回歸
回覆 支持 反對

使用道具 檢舉


發表於 2013-10-11 17:33:28 | 顯示全部樓層
又是一首旋律讓人很中毒的歌!
9 t) i4 U* h" |聽久了會上癮!
回覆 支持 反對

使用道具 檢舉


發表於 2013-10-11 17:33:46 | 顯示全部樓層
T妞的MV必定收藏了呢~
' C' ~# @+ |" g9 u5 X* ~不能錯過呢~
# C- ?) @% B3 N% }謝謝樓主分享特效字幕版呢
回覆 支持 反對

使用道具 檢舉


發表於 2013-10-11 18:06:22 | 顯示全部樓層
終於有點熱鬧了..TARA這首很好聽 希望成績能好
回覆 支持 反對

使用道具 檢舉


發表於 2013-10-11 18:11:15 | 顯示全部樓層
中字版的耶!!!!, o1 `6 U* Y3 g( e* g

4 n) K% I: q( ]( u0 N0 {9 a- z這首也蠻好聽的!!!  @7 h4 u- w; [& S) Y* a5 d) f: D$ s
回覆 支持 反對

使用道具 檢舉


發表於 2013-10-11 18:52:32 | 顯示全部樓層
來看中文字幕$ E* `9 `) ]0 U. d8 f4 U
不然真的聽不懂唱什麼= ="
, C2 Y7 I( z7 D兩首素妍都是主唱~
回覆 支持 反對

使用道具 檢舉


發表於 2013-10-11 19:15:40 | 顯示全部樓層
发展的不错嘛  出道能有2年的时间?  这次少了一个人吧
回覆 支持 反對

使用道具 檢舉


發表於 2013-10-11 19:27:44 | 顯示全部樓層
T-ARA新歌 絕對不能錯過
/ L3 h. N6 n7 {/ Q, m2 T等好久了 謝謝樓主分享
回覆 支持 反對

使用道具 檢舉


發表於 2013-10-11 19:28:14 | 顯示全部樓層
T-ARA又出新歌了!6 V0 }% P5 Y3 R* G$ G! v4 y
上次回歸已經有一段時間了9 x: o: b6 G8 N1 F, k% s4 L5 e
不知道風格是否會有變化
回覆 支持 反對

使用道具 檢舉


發表於 2013-10-11 19:28:55 | 顯示全部樓層
這首新歌蠻好聽的
3 c5 \, S/ `  r& L! ^0 C( Z6 |
8 Z7 u' E6 q- _1 \' E* S8 n特別是孝敏的鏡頭好多喔
回覆 支持 反對

使用道具 檢舉


發表於 2013-10-11 19:33:06 | 顯示全部樓層
Master is just too fast and greaterhelp to us& r. O) v/ P" P! r2 G! D8 |6 r. e
Thanks for sharing
回覆 支持 反對

使用道具 檢舉


發表於 2013-10-11 19:33:24 | 顯示全部樓層
又有T-ara的新歌可以看了- g* A! }; J$ u4 R* ~. Q
已看過其他版本 但就是聽不懂唱啥這首新歌蠻好聽的等好久了 謝謝樓主分享
回覆 支持 反對

使用道具 檢舉

您需要登錄後才可以回文 登錄 | 註冊

再次提醒,當您點擊發表回覆,視同您已經明白本討論區的版規,如不明白請先參見各版版規。

熱門推薦

Samsung 在台發表2019全新 QLED 電視系列,最高達 8K 解析度
Samsung 在台發表2019全新
Samsung 在台發表2019全新 QLED 電視系列,最高達 8K 解析度 全
FIBBR應邀探訪SONY影像技術學院
FIBBR應邀探訪SONY影像技
近日,SONY家用投影機在位於北京的索尼影像技術學院為經銷商和集
老漢自己亂設計的150吋不全套劇院(電源與布幕)
老漢自己亂設計的150吋不
廢話不多說,圖多文字少,因為書念得不多,詞窮,而且文章沒有連
FIBBR助力HDMI協會推動HDMI 2.1標準普及
FIBBR助力HDMI協會推動HDM
近日,致力推動HDMI標準、規範和認證的國際組織HDMI協會在下屬社
BenQ W2700 設定分享
BenQ W2700 設定分享
BenQ W2700 設定分享 在此分享一下小編的設定 所有測量採

聯絡我們| 問題反映| 小黑屋| 手機版| Archiver|  本網站特別聘請 蔡家豪律師 為本站法律顧問

快速回覆 返回頂部 返回列表