查看: 24940|回覆: 338
收起左側

[韓國MV] T-ara - Number 9 [繁中特效字幕] [1080p] [mp4] [373M/百度]

[複製連結]
發表於 2013-10-11 15:09:04 | 顯示全部樓層 |閱讀模式

馬上註冊,結交更多好友,享用更多功能,讓你輕鬆玩轉社區。

您需要 登錄 才可以下載或查看,沒有帳號?註冊

x
T妞穿旗袍身材好曼妙喔<3
4 C) V$ V& t; U$ |4 m話說No.9是什麼意思阿...不懂?4 D5 \- Q* x) ^% `5 |* b
I'm in the duck...in the duck...呱呱XD
- B* z0 r, e# x( o- J
7 Q# I4 d; `" C" _
[youtube]Kn8KKq60Koo[/youtube]/ n7 t; X" E3 b  z) n5 ]' n5 U

3 H% b& y  C: y0 E0 V0 ?0 D9 u) l* u- D. I6 v
  b0 ?" O& @, O9 h0 b/ i9 p

$ j, z) D" g! b9 }" P* y4 k3 }, G( {2 j; ?9 i
% M- N8 [& w' F0 V2 A  f; V) a2 ]
# w8 ^: p! j! \1 y9 p! B9 Q1 e0 y

# ]' V7 Q8 m, {/ k1 B3 D
. m. o: f2 I( p# e0 j- ~- A/ f" ], @; ]: m
D:\T-ara - Number 9 [繁中特效字幕] [1080p] [pureland].mp46 h2 v8 s7 }* f: H. C$ _5 s8 }
  General0 d! V! t( V" J  ?7 E
    Complete name : D:\T-ara - Number 9 [繁中特效字幕] [1080p] [pureland].mp4
8 {; g  |6 A: V& V, K" M    Format : MPEG-4
3 i/ {- S. o6 F8 g7 ?    Format profile : Base Media
  u4 S2 {' j  u    Codec ID : isom# z5 R" B! b. |) Q( v0 D/ q2 j  O
    File size : 373 MiB% J: ]8 P  O. a+ Z7 S
    Duration : 3mn 53s7 n' u1 C, e$ c: k$ G" k
    Overall bit rate mode : Variable  ^6 \# L/ _% B8 Y! `2 B
    Overall bit rate : 13.4 Mbps( R, C; O0 t( V( u3 x
    Encoded date : UTC 2013-10-11 05:19:25
  X1 o% P9 g# E% @9 U9 @    Tagged date : UTC 2013-10-11 05:19:25( z/ Q. z3 X, p  W" o$ z, v& k# j
  Video #1  Q9 ?6 `) R( o$ o3 r- \
    ID : 17 |; M$ j/ x1 b9 ^& q5 |
    Format : AVC- d- L- a# ?& y
    Format/Info : Advanced Video Codec
! J9 P; M5 h, S' }8 l/ l# M& m    Format profile : Main@L4.0
& o5 @( @# m1 o    Format settings, CABAC : Yes
" |7 k; m1 B/ f) ]    Format settings, ReFrames : 2 frames
, R. ]- @; K7 L) P    Format settings, GOP : M=2, N=29
9 a& C5 z# N2 C. G4 w- X! B. z5 O    Codec ID : avc1
, a4 ?  x- ~, y  Q! R    Codec ID/Info : Advanced Video Coding
0 @/ t7 }# R9 ?    Duration : 3mn 53s
9 `  ]# }3 ]0 b9 k6 W    Bit rate : 13.1 Mbps9 k' ?2 _, n4 }. j$ Z
    Maximum bit rate : 19.7 Mbps% v2 e7 B; G6 F9 B6 p& b: G& p8 ]7 d
    Width : 1 920 pixels. f4 r; k1 c1 m6 h
    Height : 1 080 pixels1 ]2 x4 y1 M7 Y8 A9 F1 l
    Display aspect ratio : 16:9
' y; L0 a+ ^0 ]    Frame rate mode : Variable
1 s  p  G  L! K6 k, I, O    Frame rate : 29.970 fps
+ Z; ^2 u: L5 Z2 B$ D" Q    Minimum frame rate : 29.940 fps+ N+ k6 u3 \% V! T4 k; y/ E5 [
    Maximum frame rate : 29.970 fps
' p0 U% B" K# z$ I! v- m' f5 ?    Color space : YUV9 F1 ?! e  V. E' F
    Chroma subsampling : 4:2:0
  |' H1 u, h* O: s( h9 O# |0 M    Bit depth : 8 bits7 M- Y0 _' f: U5 S) k8 R
    Scan type : Progressive
# a2 z1 ^2 ~$ X6 y) g: c; z) N    Bits/(Pixel*Frame) : 0.210
/ F/ s, [, ~; Q. A# u, I) i, W    Stream size : 364 MiB (98%)
$ b! W( _7 d" e, S/ R/ A8 z# ^    Language : English
* c+ y+ ^% D) |& O    Encoded date : UTC 2013-10-11 05:17:23+ X& ^1 r# h. p$ m" }' ^
    Tagged date : UTC 2013-10-11 05:19:25
7 ?+ R# o, M$ q, K  Audio #20 ]" K, L* }. i4 X- Q
    ID : 2
% c+ A5 x) p/ a, k    Format : AAC, i: I" O/ i5 g6 S( c0 w
    Format/Info : Advanced Audio Codec
( Y" `: X0 A4 j4 o    Format profile : LC
+ s0 c& ~* t' T3 M! w5 S    Codec ID : 40
9 u7 i5 |9 i) k& h0 ~  P2 A+ c; O    Duration : 3mn 53s
* S3 e/ l7 S( ?* t    Bit rate mode : Variable
6 d4 ]8 g9 X7 ~* f    Bit rate : 317 Kbps
) h6 t! p* u! y- ]8 u    Maximum bit rate : 325 Kbps! k3 n. N: g, n% }5 V
    Channel count : 2 channels# [2 Z9 Q, E8 I% z0 t1 c
    Channel positions : Front: L R
6 n" |5 x7 M  l' K  k    Sampling rate : 48.0 KHz$ `5 G/ S, d9 ~: }( K# ?" V
    Compression mode : Lossy3 j1 a5 t& [8 F' S! x0 Z8 h; B
    Stream size : 8.85 MiB (2%)4 W2 [+ C0 `1 e/ @
    Language : Korean' ^, y2 I. D/ e* G
    Tagged date : UTC 2013-10-11 05:19:25

" `6 M8 C- H+ U  b! X, P/ Q. ?1 n
( p3 W" a# {1 P4 @載點:
1 s1 ~0 U# M" G* M% ]" l, K  p
遊客,如果您要查看本文隱藏內容請回覆

評分

參與人數 2名聲 +26 精幣 +21 收起 理由
hkskw + 20 + 15 精品文章
twins-jacky + 6 + 6 精品文章

查看全部評分

發表於 2013-10-11 15:16:49 | 顯示全部樓層
T-ara 這首新歌很好聽...謝謝分享
回覆 支持 反對

使用道具 檢舉

發表於 2013-10-11 15:20:21 | 顯示全部樓層
又有T-ara的新歌可以看了
0 J. R9 r0 f  {: l, k: w; x已看過其他版本 但就是聽不懂唱啥# K3 q! i; T* Y( i1 d2 y1 b2 G
多謝大大分享中文字幕版 這下可好好欣賞了
5 b1 Z8 n$ S. T4 ^
回覆 支持 反對

使用道具 檢舉

發表於 2013-10-11 16:12:16 | 顯示全部樓層
新歌真的很好聽,MV更是經典.T-ara最近蠻活躍的~~謝謝分享
回覆 支持 反對

使用道具 檢舉

發表於 2013-10-11 16:28:54 | 顯示全部樓層
网上看到的解释:
5 |; u: N0 S) ?5 r" y# V8 J5 _   No.9是Love potion no.9 的缩写是 1966年由the searcher演唱的英文歌 ,歌词是一个落魄的汉纸去找一个女人调配名为 Love potion no.9的爱情灵药 感觉可以是将所爱之人比喻成这款爱情灵药 也有可能理解成将爱情灵药拟人化 来表现那份陷入爱情里面伤痛的模样

評分

參與人數 1名聲 +2 精幣 +2 收起 理由
pureland + 2 + 2 熱心助人^^

查看全部評分

回覆 支持 反對

使用道具 檢舉

發表於 2013-10-11 17:02:26 | 顯示全部樓層
VERY BAD SITUATION FOR TARA NOW FACING IN KOREA, THEY REALLY NEED A SONG TO BREAK IT OUT, HOPE THEY CAN DO IT!,
回覆 支持 反對

使用道具 檢舉

發表於 2013-10-11 17:23:43 | 顯示全部樓層
顶一个,谢谢分享,喜欢
回覆 支持 反對

使用道具 檢舉

發表於 2013-10-11 17:27:59 | 顯示全部樓層
t-ara終於出新歌了' R( r2 o- V, b1 b8 o" i1 B2 r
期待好久了阿 XD
回覆 支持 反對

使用道具 檢舉

發表於 2013-10-11 17:30:48 | 顯示全部樓層
T妞真的是太正了
, [2 S" L6 y; K# m歡迎回歸
回覆 支持 反對

使用道具 檢舉

發表於 2013-10-11 17:33:28 | 顯示全部樓層
又是一首旋律讓人很中毒的歌!5 r: n$ H1 F' v! u& V  M
聽久了會上癮!
回覆 支持 反對

使用道具 檢舉

發表於 2013-10-11 17:33:46 | 顯示全部樓層
T妞的MV必定收藏了呢~
- {2 [. B5 T: d9 E! {' z不能錯過呢~) D4 h2 q& k7 x6 E/ M' ]3 i& R, B
謝謝樓主分享特效字幕版呢
回覆 支持 反對

使用道具 檢舉

發表於 2013-10-11 18:06:22 | 顯示全部樓層
終於有點熱鬧了..TARA這首很好聽 希望成績能好
回覆 支持 反對

使用道具 檢舉

發表於 2013-10-11 18:11:15 | 顯示全部樓層
中字版的耶!!!!
' j/ ~. _# h, K( s! q
! ^, C# }1 |0 V2 X  [: j+ A  C& _1 f這首也蠻好聽的!!!$ v9 X9 P) H+ R
回覆 支持 反對

使用道具 檢舉

發表於 2013-10-11 18:52:32 | 顯示全部樓層
來看中文字幕' b' {. {2 I: Q. y1 t
不然真的聽不懂唱什麼= ="
3 N. O( t3 v2 a$ Q0 [9 p# `兩首素妍都是主唱~
回覆 支持 反對

使用道具 檢舉

發表於 2013-10-11 19:15:40 | 顯示全部樓層
发展的不错嘛  出道能有2年的时间?  这次少了一个人吧
回覆 支持 反對

使用道具 檢舉

發表於 2013-10-11 19:27:44 | 顯示全部樓層
T-ARA新歌 絕對不能錯過
# k, F$ \8 c/ o1 S) C, A5 K等好久了 謝謝樓主分享
回覆 支持 反對

使用道具 檢舉

發表於 2013-10-11 19:28:14 | 顯示全部樓層
T-ARA又出新歌了!& Y3 o3 C4 ^8 B4 h
上次回歸已經有一段時間了3 |0 G. z* u3 _, C' r
不知道風格是否會有變化
回覆 支持 反對

使用道具 檢舉

發表於 2013-10-11 19:28:55 | 顯示全部樓層
這首新歌蠻好聽的
1 Q$ f$ Z7 B9 _/ a0 T
! V3 T' [% f! r: c/ e7 z% B特別是孝敏的鏡頭好多喔
回覆 支持 反對

使用道具 檢舉

發表於 2013-10-11 19:33:06 | 顯示全部樓層
Master is just too fast and greaterhelp to us& w1 o: y2 G7 A6 q
Thanks for sharing
回覆 支持 反對

使用道具 檢舉

發表於 2013-10-11 19:33:24 | 顯示全部樓層
又有T-ara的新歌可以看了% l( W, i2 Y+ ~' z( \8 u
已看過其他版本 但就是聽不懂唱啥這首新歌蠻好聽的等好久了 謝謝樓主分享
回覆 支持 反對

使用道具 檢舉

您需要登錄後才可以回文 登錄 | 註冊

再次提醒,當您點擊發表回覆,視同您已經明白本討論區的版規,如不明白請先參見各版版規。

熱門推薦

簡易開箱Yamaha RX-A3080
簡易開箱Yamaha RX-A3080
終於把用了十幾年的SONY DA-2400ES給換下來了 希望這次Yamaha RX
帶動4K經濟就是要靠這一味,韓國4K UHD頻道強力放送(下載-少女時代L.A演出現場)
帶動4K經濟就是要靠這一味
目前韓國已經擁有5個UHD超高清頻道,分別是:UMAX, CJ E&M
BenQ 推出HDR舒視屏護眼螢幕EW3270U
BenQ 推出HDR舒視屏護眼螢
發展獨家類瞳孔技術 復刻視界 帶來雙倍舒視 護眼螢幕領導品牌
DENON AVR-X7200WA 又有韌體更新
DENON AVR-X7200WA 又有韌
不知道要等到哪一個版本才能支援Dolby Vision 先更新再說
BenQ 超大75型4K HDR量子點電視精研總部體驗會 "感想"
BenQ 超大75型4K HDR量子
感謝BenQ & 精研能舉辦一個那麼棒的體驗會~感謝西楓大幫小弟留個

聯絡我們| 問題反映| 小黑屋| 手機版| Archiver|  本網站特別聘請 蔡家豪律師 為本站法律顧問

快速回覆 返回頂部 返回列表