查看: 903|回覆: 8
收起左側

[華語TV] 张学友 - 李香兰《国产凌凌漆》插曲高清剪辑(国粤双音轨)[MP4/1080P/124M]

[複製連結]

發表於 2016-12-16 23:34:00 | 顯示全部樓層 |閱讀模式

馬上註冊,結交更多好友,享用更多功能,讓你輕鬆玩轉社區。

您需要 登錄 才可以下載或查看,沒有帳號?註冊

x
0.jpg
, Q' J. i! a9 `; y0 k' @! x2 `6 I* e' K
国产凌凌漆 这个片段里的星爷真是完美演绎了风流倜傥的典范啊,而今青春风采桀骜不再,再次重温,却多了几分感慨和缅怀...
  T, C* c+ l. M
/ D8 u6 {2 A/ g% u2 v   General$ s  T) \* D2 x! u" b
      Complete name : 张学友 - 李香兰《国产凌凌漆》插曲高清剪辑(国粤双音轨).mp42 b9 b% L4 W4 g# J! i
      Format : MPEG-46 A# z% W8 P5 a8 G( D
      Format profile : Base Media( P/ `. g& Y0 b# H. U( y
      Codec ID : isom
: w" G* C% K' I: ]      File size : 121 MiB% n6 W" s% ?/ g" [
      Duration : 1mn 55s  Y5 B5 i0 h. U
      Overall bit rate : 8 778 Kbps
0 ], I; e- t, Q( ?+ M, Z* H  }+ P! u      Encoded date : UTC 1970-01-01 00:00:00
" a) D. ^# M  _3 @9 \      Tagged date : UTC 1970-01-01 00:00:00
/ t$ n$ a8 q4 i4 r# _: x   Video #1
5 ?6 A  g0 F5 t! L) {5 M6 l" H      ID : 1
8 s7 O7 y& V2 Q/ a6 y  \: ~      Format : AVC
5 E/ a# L& [; C4 O) Q# j0 k5 V8 F      Format/Info : Advanced Video Codec) N! ~# H7 _% G6 x/ z5 p, W; ^  M4 L
      Format profile : High@L5
+ H, y' z+ x+ g9 g: B      Format settings, CABAC : Yes
/ O; I7 U# F# M0 o' m8 ^8 t      Format settings, ReFrames : 8 frames
: a( F# w. W/ E6 V  F      Codec ID : avc1/ U1 k) e  q: A/ ~0 A5 I: I
      Codec ID/Info : Advanced Video Coding7 h$ V- e$ J* ?7 @& y
      Duration : 1mn 55s
% p( r1 q! x8 I( Q$ n9 k- P      Bit rate : 8 002 Kbps( r$ h+ I' s  M% H- x, z( i
      Width : 1 920 pixels
1 @3 O+ X0 u) H9 T3 g  M      Height : 1 080 pixels2 M2 Z- L' `, @3 [
      Display aspect ratio : 16:9
# ?3 n/ P& Y0 B3 X1 D9 P      Frame rate mode : Constant: C9 A: p5 W9 L1 l
      Frame rate : 30.000 fps
1 |8 K6 B% v# _* u7 k- L- Y* f      Color space : YUV
* m3 I# K$ \) L  G      Chroma subsampling : 4:2:0) n' h2 R+ P$ U% p
      Bit depth : 8 bits
9 X- t( I6 q! s; |6 ~. c; V      Scan type : Progressive$ r' Z1 |( D$ J) I; I2 j0 e  i7 d! m
      Bits/(Pixel*Frame) : 0.129+ Q2 |  _- P$ ?' t8 ]3 W7 v- V
      Stream size : 110 MiB (91%). g! Z# {" T! H3 `" O, N7 h8 T
      Language : English& ?" b: _: o. ~, p$ g
      Encoded date : UTC 1970-01-01 00:00:00
' a, R" W: v; N; x9 e" T      Tagged date : UTC 1970-01-01 00:00:00
' Z; ]% C7 V+ j1 G3 b6 a1 ]5 p7 _   Audio #2
0 z- F% V' u  j" |      ID : 2
: I  g8 M7 ~* n' P      Format : AC-3
1 K4 z; H, i& K% t4 g      Format/Info : Audio Coding 33 @. J) U  W5 v7 ?6 F! G0 r% ?
      Mode extension : CM (complete main): K7 P8 s) m# O' T1 Q; X
      Format settings, Endianness : Big
* K3 N6 o, @* q& P0 E      Codec ID : ac-3
5 B; P) W/ B% c* Q2 ]. i" G' _      Duration : 1mn 55s
$ `  b$ E! S' H' X      Source duration : 1mn 55s- D' f( b! T" B1 c
      Bit rate mode : Constant
0 B( i4 \0 F3 J! `      Bit rate : 384 Kbps
6 Q1 i0 {, l( s, Q0 a      Channel(s) : 6 channels
( F" r- {5 U# ]6 M) a! ?* Q      Channel positions : Front: L C R, Side: L R, LFE7 o, c( t% e  V5 h( w
      Sampling rate : 48.0 KHz
9 {$ I2 \- R) g: L- @# _      Bit depth : 16 bits
6 J/ I' x5 j- A. B) m3 d* W) k      Compression mode : Lossy
/ j2 R% X' t' T/ M( I# C( K; D      Stream size : 5.30 MiB (4%)& u0 B% y. y: g- G: s+ d
      Source stream size : 5.30 MiB (4%)2 o/ z( C, _% R1 Z; l2 T% N6 j! d
      Language : English2 d  `: g- e1 R# G6 n
      Encoded date : UTC 1970-01-01 00:00:00
8 q2 U/ Z0 X4 v  b. Y6 i9 W      Tagged date : UTC 1970-01-01 00:00:00
) C# p1 x7 K$ @4 N8 {      mdhd_Duration : 115741
# N0 v2 H% O6 q7 o% [   Audio #3/ e0 w, A0 j- B: G
      ID : 3
. E+ B9 z% a3 G5 T' p  o      Format : AC-3( G3 b" T; G! W2 Z3 z
      Format/Info : Audio Coding 39 u! k+ j0 j3 e5 r3 I* s6 ~
      Mode extension : CM (complete main)
. M" Z$ l) F& S$ S0 O      Format settings, Endianness : Big" _* \, p# a/ v
      Codec ID : ac-3
/ F1 \' Z& I/ L6 K- ^      Duration : 1mn 55s7 x, i! T: R/ J: a) h
      Source duration : 1mn 55s& Z+ V5 Y/ J# ~% ^+ ~8 q( n5 a
      Bit rate mode : Constant
( v4 N3 @1 H% S      Bit rate : 384 Kbps
" o" y0 F3 w0 A2 t      Channel(s) : 6 channels# o, t0 i; D7 D5 H+ D2 I2 Y
      Channel positions : Front: L C R, Side: L R, LFE( P( r/ e" d  \+ l9 s7 s) D
      Sampling rate : 48.0 KHz! X9 |) }1 J6 t4 I9 L+ N; T3 l
      Bit depth : 16 bits6 ~6 k, }5 @3 q' n9 N
      Compression mode : Lossy1 A( K9 k7 I6 o$ a, U8 o
      Stream size : 5.30 MiB (4%)* n1 e: v" @* X
      Source stream size : 5.30 MiB (4%)
, Z7 I9 W9 c2 f' v2 I( O      Language : English$ D, d) n$ d3 V4 G( H! \
      Encoded date : UTC 1970-01-01 00:00:00& Z$ {( `% |0 w% z3 h! [  ?! q
      Tagged date : UTC 1970-01-01 00:00:00% s/ P2 q. X9 x; G1 I0 P
      mdhd_Duration : 115741
7 C3 w, J7 {6 R2 Y5 _% Z, t, H, K5 `6 Q7 K. R. Z
1.JPG
& P3 J9 b4 t1 M+ C 2.JPG
: A3 Y  |, i" P& h0 s 3.JPG
- h6 G4 X, W+ F* b5 S: O 4.JPG ; p# A% c+ l* B" T8 b, H, j
5.JPG 1 Y5 r+ ~% P& W; [" d9 v  N
$ r( y0 s. @8 e/ [4 v# N
链接:http://pan.baidu.com/s/1mhYyLGO& ]& Y! X; |9 y5 O/ `, r
密码:lz1k

發表於 2016-12-17 00:23:06 | 顯示全部樓層
蠻喜歡這首歌的
3 m6 C2 q* B% n8 |6 h周爺電影中都會有首歌' t! ]8 H4 l' g* Y+ g/ w2 b
這首是其中我蠻喜歡的......又讓我想起大話西遊的"一生所愛"0 o* {8 A% y+ O
來去再聽歌
7 }& W/ Z' _! a6 @5 Q感謝分享
/ E8 I: |5 j* a* _& Y8 r7 U$ T2 e! F
回覆 支持 反對

使用道具 檢舉


發表於 2016-12-20 22:32:45 | 顯示全部樓層
很喜歡的電影 也是很喜歡的歌 感謝版大辛苦分享
回覆 支持 反對

使用道具 檢舉


發表於 2016-12-27 22:53:26 | 顯示全部樓層
楼主厉害 这个居然都有剪辑!
回覆 支持 反對

使用道具 檢舉


發表於 2016-12-28 13:43:41 | 顯示全部樓層
谢谢分享
回覆 支持 反對

使用道具 檢舉


發表於 2017-1-2 09:13:33 | 顯示全部樓層
哇 这个绝对经典呀% f1 @) m4 i8 G2 q5 f5 v6 D' H
我来看看 !!
回覆 支持 反對

使用道具 檢舉


發表於 2017-1-30 22:06:15 | 顯示全部樓層
经典啊~张学友的歌一直很好听
) n: C0 M$ [, i& T" o% x4 u来看看 !!9 T. \4 _' q: A
谢谢
回覆 支持 反對

使用道具 檢舉


發表於 2017-3-18 07:07:52 | 顯示全部樓層
秋意濃的粵語版 好聽的歌永不會被遺忘
回覆 支持 反對

使用道具 檢舉


發表於 2018-4-16 03:31:00 | 顯示全部樓層
: K7 s+ w; w5 j9 x
很喜歡的電影 也是很喜歡的歌 感謝版大辛苦分享
回覆 支持 反對

使用道具 檢舉

您需要登錄後才可以回文 登錄 | 註冊

再次提醒,當您點擊發表回覆,視同您已經明白本討論區的版規,如不明白請先參見各版版規。

熱門推薦

大陆南京网友的小小家庭影院
大陆南京网友的小小家庭影
我是客厅党房价太贵没有办法搞视听室,这就个奢侈的梦。 工作比
床上影院進化中
床上影院進化中
本文章最後由 tom3050 於 2015-1-6 18:46 編輯 今天收到遲來
數位流訊源時代即將來臨【家訪台中黃先生】
數位流訊源時代即將來臨【
起了個大清早!特搜隊一行人浩浩從桃園出發到台中~這時才六點,
雙重火力【家訪桃園鋒哥】
雙重火力【家訪桃園鋒哥】
台灣的音響論壇中大家耳能詳的重低音不外乎就是MK、SVS、威力登
帶動4K經濟就是要靠這一味,韓國4K UHD頻道強力放送(下載-少女時代L.A演出現場)
帶動4K經濟就是要靠這一味
目前韓國已經擁有5個UHD超高清頻道,分別是:UMAX, CJ E&M

聯絡我們| 問題反映| 小黑屋| 手機版| Archiver|  本網站特別聘請 蔡家豪律師 為本站法律顧問

快速回覆 返回頂部 返回列表