查看: 2816|回覆: 5
收起左側

斯卡羅(排灣語:Seqalu)公視4K版本

  [複製連結]

發表於 2021-8-15 10:18:25 | 顯示全部樓層 |閱讀模式

馬上註冊,結交更多好友,享用更多功能,讓你輕鬆玩轉社區。

您需要 登入 才可以下載或查看,沒有帳號?註冊

x
斯卡羅(排灣語:Seqalu),又稱斯卡羅酋邦與斯卡羅王國,是一個曾經存在於臺灣本島屏東瑯嶠地區(恆春一帶)的封建制政權,該政權是由南遷的知本社卑南族人所形成的貴族群體,與恆春當地人口多數的排灣族人,所建立的含排灣族、阿美族在內等大型酋邦貴族政權。其統治疆域大致屬現臺東縣太麻里、金崙、大鳥及屏東縣滿州一帶。十七世紀,荷蘭方面稱其統治者被稱為「瑯嶠君主」。在清朝文書中稱瑯嶠下十八番社。
斥資新台幣2.2億,耗時七年籌備、拍攝的史詩旗艦戲劇《斯卡羅》(SEQALU:Formos1867),2021年(八月14日)晚上9點在公共電視台首播。

故事改編自陳耀昌醫師原著小說《傀儡花》的《斯卡羅》,是以1867年發生在恆春半島南端的「羅妹號事件」為背景,述說著150多年前台灣的原住民、閩南、客家以及唐山漢族(國語),與西方國家多個從衝突到融合,後來簽訂南岬之盟,化干戈為玉帛的故事。

《斯卡羅》導演曹瑞原表示,希望經由這個故事,讓收看的觀眾,特別是年輕人,認識這段屬於台灣的關鍵歷史,並且學習尊重多元族群的文化,去了解到其實我們腳掌所踏的福爾摩沙這片土地,是多麼美麗且珍貴,我們都是生命共同體。

關於這一段台灣歷史,我們對下一代無法說個明白,不如就一起觀賞,讓他們了解我們的先人曾經奮鬥過努力過的故事。

DSC08069.jpg

公視4K版本,畫質非常好,整部影集製作的格局與水準都已經是電影級了,真希望能濃縮個上院線的版本,這樣就能聽到音效上更精采的多聲道版本。
messageImage_1628992330649.jpg

海上的風 ep1.ts_snapshot_01.54_[2021.08.15_10.02.11].jpg

海上的風 ep1.ts_snapshot_04.29_[2021.08.15_10.03.16].jpg

海上的風 ep1.ts_snapshot_07.22_[2021.08.15_10.04.08].jpg

海上的風 ep1.ts_snapshot_07.47_[2021.08.15_10.04.44].jpg

海上的風 ep1.ts_snapshot_21.52_[2021.08.15_10.05.15].jpg

海上的風 ep1.ts_snapshot_29.40_[2021.08.15_10.06.53].jpg

藍眼人 ep2.ts_snapshot_00.12_[2021.08.15_10.09.41].jpg

藍眼人 ep2.ts_snapshot_04.09_[2021.08.15_10.11.54].jpg

藍眼人 ep2.ts_snapshot_16.31_[2021.08.15_10.12.44].jpg




發表於 2021-8-15 13:04:02 | 顯示全部樓層
好美的畫面
回覆 支持 反對

使用道具 舉報


發表於 2021-8-17 12:32:02 | 顯示全部樓層
請問版主,如何才能在電視等大螢幕上看公視4K影片?
回覆 支持 反對

使用道具 舉報


發表於 2021-8-18 02:59:26 | 顯示全部樓層
本文最後由 harry71019 於 2021-8-18 03:29 AM 編輯

4K畫質真的不錯,只是可惜沒有HDR,也好奇公視在4K串流怎麼沒有選用HEVC


回覆 支持 反對

使用道具 舉報


發表於 2021-8-30 21:36:12 | 顯示全部樓層
視頻參數如下 硬字幕不友好外 其他都不錯
Video
ID                             : 1
Format                         : AVC
Format/Info                    : Advanced Video Codec
Format profile                 : Main@L5.2
Format settings                : CABAC / 3 Ref Frames
Format settings, CABAC         : Yes
Format settings, Reference fra : 3 frames
Codec ID                       : V_MPEG4/ISO/AVC
Duration                       : 50 min 50 s
Bit rate mode                  : Constant
Bit rate                       : 25.0 Mb/s
Width                          : 3 840 pixels
Height                         : 2 160 pixels
Display aspect ratio           : 16:9
Frame rate mode                : Variable
Frame rate                     : 61.183 FPS
Original frame rate            : 59.940 (60000/1001) FPS
Color space                    : YUV
Chroma subsampling             : 4:2:0
Bit depth                      : 8 bits
Scan type                      : Progressive
Bits/(Pixel*Frame)             : 0.049
Stream size                    : 8.87 GiB (99%)
Default                        : Yes
Forced                         : No
Color range                    : Limited
Color primaries                : BT.709
Transfer characteristics       : BT.709
Matrix coefficients            : BT.709

Audio
ID                             : 2
Format                         : AAC LC
Format/Info                    : Advanced Audio Codec Low Complexity
Codec ID                       : A_AAC-2
Duration                       : 51 min 35 s
Bit rate                       : 125 kb/s
Channel(s)                     : 2 channels
Channel layout                 : L R
Sampling rate                  : 48.0 kHz
Frame rate                     : 46.875 FPS (1024 SPF)
Compression mode               : Lossy
Delay relative to video        : -33 ms
Stream size                    : 46.3 MiB (1%)
Default                        : Yes
Forced                         : No


回覆 支持 反對

使用道具 舉報


發表於 2021-9-2 00:13:27 | 顯示全部樓層
非常好的畫質
回覆 支持 反對

使用道具 舉報

您需要登入後才可以回文 登入 | 註冊

本版積分規則

熱門推薦

(KK 700 Pro開箱聆聽感想) 小空間,大規格,低聲量,高細節
(KK 700 Pro開箱聆聽感想)
(KK 700 Pro開箱聆聽感想) 小空間,大規格,低聲量,高細節 一切
四個月改造,音場元宇宙:KK 700 Pro全餐+Starke A7.5/AD4.320 雙雄到位
四個月改造,音場元宇宙:
四個月改造,音場元宇宙:KK 700 Pro全餐+Starke A7.5/AD4.320
致敬熱愛 不負所托 | FIBBR高品質喇叭線材重磅上市!
致敬熱愛 不負所托 | FIBB
​時值FIBBR成立6周年,為回饋廣大粉絲的支持與厚愛,FIBBR深入
麻雀劇院夢圓關箱文 - 五臟六腑終於集滿了!Ken Kreisel K700pro/KS700+ STARKE A7 mk2就位!
麻雀劇院夢圓關箱文 - 五
麻雀劇院幸福夢圓 - 五臟六腑終於集滿了!Ken Kreisel K700pro/K
德国金榜VENTO系列...新资讯,请注意查收!
德国金榜VENTO系列...新资
长期占据德国音响销售榜榜首的金榜CANTON近期又有新动作,不满足

聯絡我們| 問題反映| 小黑屋| 手機版| Archiver|  本網站特別聘請 蔡家豪律師 為本站法律顧問

快速回覆 返回頂部 返回列表