查看: 5763|回覆: 10
收起左側

[精研評測] Dolby Vision + MQA 影音雙絕 豔壓群“姬”的 zidoo UHD3000

[複製連結]

發表於 2021-4-2 12:38:00 | 顯示全部樓層 |閱讀模式

馬上註冊,結交更多好友,享用更多功能,讓你輕鬆玩轉社區。

您需要 登入 才可以下載或查看,沒有帳號?註冊

x
      
如果說UHD2000是AV進化的里程碑之作,那麼它的最新進化版UHD3000,說它是影音雙絕的AV銘器一點不為過!影像方面,有支援Dolby Vision的RTD1619DR加持,音效方面則有支援MQA硬體解碼的ESS9068加持,再加上環牛線性電源和開關電源,這兩個高品質供電模組,類比與數位電路獨立供電的加持。讓UHD3000的影像及聲音都有更極致的表現!

有關UHD3000產品介紹,請參閱:zidoo 2021旗艦影音巔峰之作-芝杜UHD3000頂級4K Hi-Fi播放機強勢登場

硬體部份
先看實機外觀

1HD01873 - 複製.JPG

雙HDMI輸出實現影音分離
UHD3000-001.jpg

USB音訊輸入(可當做高階純音訊解碼器使用)支援Windows系統(7,10),Mac系統,Android系統。
UHD3000-002.jpg

金光閃閃的RCA和XLR平衡輸出端子
UHD3000-003.jpg

類比音訊特性
頻率範圍: 20Hz-20KHz +/-0.35dB
噪訊比(SNR): > 128dBrA
動態範圍(DNR): > 125dB
總諧波失真+噪音(THD+N): < 0.00026%
輸出電平: (XLR) 4.0±0.4Vrms. (RCA) 2.0±0.2Vrms.

機器內部特寫
ESS9068 + XMOS 以及補品電容和發燒運放
UHD3000-004.jpg

環牛 + 開關電源分別對類比/數位電路獨立供電
UHD3000-005.jpg

拿掉金屬屏蔽罩的開關電源
UHD3000-006.jpg

用料紮實的整流濾波電路
UHD3000-007.jpg

主控板
Realtek RTD1619 DR六核64位A55處理器
4GB DDR4 + 32GB eMMC
UHD3000-008.jpg

看了開上蓋的內部結構,可以看出UHD3000相較於上一代UHD2000改動之處相當之大。並非是簡單的晶片升級,而是通過重新設計精心打造的新旗艦機型。


 樓主| 發表於 2021-1-21 00:28:39 | 顯示全部樓層
軟體部份
Screenshot_20210121-152220.png

照例開機嚮導先來:



系 統 設 定



海報墻初次設定



音樂播放器初次設定



媒體中心



全部應用


Screenshot_20210121-225527.png

回覆 支持 反對

使用道具 舉報


 樓主| 發表於 2021-1-22 00:06:39 | 顯示全部樓層
體驗部份
環境設定(HDMI 影像採集使用zidoo X9S,因此DAC音樂播放只能採集影像部份):
0001.png

0002.png

0003.png

0004.png

先上BT.2111彩條校一校黒位和白位
PQ narrow range
0005.png

HLG narrow range(Stair完美)
0007.png

Dolby Vision Profile5 full range
0006.png

測量RCA輸出,僅供參考。
DAC RMAA.JPG
2-1、2-2、2-3:為慢滾最小相位三次測量值
1-1、1-2、1-3:為快速滾降三次測量值
3-1、3-2:  為最小相位校正兩次測量值

海報墻播放體驗
Screenshot_20210121-230127.png



手機端操控
Screenshot_20210121-190137.jpg

Screenshot_20210121-190238.jpg

Screenshot_20210121-190230.jpg

【使用海報墻相關技巧請閱此帖

音樂播放器體驗
Screenshot_20210121-230307.png

SACD DSD Native播放



手機端操控
Screenshot_20210121-190616.jpg

Screenshot_20210121-190532.jpg

Screenshot_20210121-190548.jpg

MQA硬體解碼播放


手機端操控
Screenshot_20210121-190700.jpg


名場面GOTS08E03
之前海報墻演示了一小段HDR10 UHDBD原盤播放效果,想必不過癮,接下來演示播放單軌雙層杜比視界MKV的效果。之前在zidoo Z10PRO的報告中有講過,機器是不能直接播放雙軌原盤杜比視界的,必須通過工具把它轉成單軌雙層文檔(STDL MEL),而MKV是兼容性最佳的封裝格式,什麽ATMOS,DTS-X音軌,特效字幕統統皆支援。

UHDBD原盤杜比視界雙軌M2TS 轉 單軌雙層MKV播放
【欲知更多DOLBY VISION相關資訊,請閱此帖。】

UHDBD原盤杜比視界雙軌M2TS原檔:
  1. General
  2. ID                                       : 0 (0x0)
  3. Complete name                            : \\Share\80A9-6ED7\GOTS08E03.m2ts
  4. Format                                   : BDAV
  5. Format/Info                              : Blu-ray Video
  6. File size                                : 37.5 GiB
  7. Duration                                 : 1 h 21 min
  8. Overall bit rate mode                    : Variable
  9. Overall bit rate                         : 66.1 Mb/s
  10. Maximum Overall bit rate                 : 109 Mb/s

  11. Video #1
  12. ID                                       : 4113 (0x1011)
  13. Menu ID                                  : 1 (0x1)
  14. Format                                   : HEVC
  15. Format/Info                              : High Efficiency Video Coding
  16. Format profile                           : Main 10@L5.1@High
  17. HDR format                               : SMPTE ST 2086, HDR10 compatible
  18. Codec ID                                 : 36
  19. Duration                                 : 1 h 21 min
  20. Width                                    : 3 840 pixels
  21. Height                                   : 2 160 pixels
  22. Display aspect ratio                     : 16:9
  23. Frame rate                               : 23.976 (24000/1001) FPS
  24. Color space                              : YUV
  25. Chroma subsampling                       : 4:2:0 (Type 2)
  26. Bit depth                                : 10 bits
  27. Color range                              : Limited
  28. Color primaries                          : BT.2020
  29. Transfer characteristics                 : PQ
  30. Matrix coefficients                      : BT.2020 non-constant
  31. Mastering display color primaries        : BT.2020
  32. Mastering display luminance              : min: 0.0001 cd/m2, max: 1000 cd/m2

  33. Video #2
  34. ID                                       : 4117 (0x1015)
  35. Menu ID                                  : 1 (0x1)
  36. Format                                   : HEVC
  37. Format/Info                              : High Efficiency Video Coding
  38. Format profile                           : Main 10@L5.1@High
  39. HDR format                               : SMPTE ST 2086, HDR10 compatible
  40. Codec ID                                 : 36
  41. Duration                                 : 1 h 21 min
  42. Width                                    : 1 920 pixels
  43. Height                                   : 1 080 pixels
  44. Display aspect ratio                     : 16:9
  45. Frame rate                               : 23.976 (24000/1001) FPS
  46. Color space                              : YUV
  47. Chroma subsampling                       : 4:2:0 (Type 2)
  48. Bit depth                                : 10 bits
  49. Color range                              : Limited
  50. Color primaries                          : BT.2020
  51. Transfer characteristics                 : PQ
  52. Matrix coefficients                      : BT.2020 non-constant
  53. Mastering display color primaries        : BT.2020
  54. Mastering display luminance              : min: 0.0001 cd/m2, max: 1000 cd/m2

  55. Audio #1
  56. ID                                       : 4352 (0x1100)
  57. Menu ID                                  : 1 (0x1)
  58. Format                                   : AC-3
  59. Format/Info                              : Audio Coding 3
  60. Commercial name                          : Dolby Digital
  61. Codec ID                                 : 129
  62. Duration                                 : 1 h 21 min
  63. Bit rate mode                            : Constant
  64. Bit rate                                 : 640 kb/s
  65. Channel(s)                               : 6 channels
  66. Channel layout                           : L R C LFE Ls Rs
  67. Sampling rate                            : 48.0 kHz
  68. Frame rate                               : 31.250 FPS (1536 SPF)
  69. Compression mode                         : Lossy
  70. Delay relative to video                  : 2 s 2 ms
  71. Stream size                              : 372 MiB (1%)
  72. Service kind                             : Complete Main

  73. Audio #2
  74. ID                                       : 4353 (0x1101)
  75. Menu ID                                  : 1 (0x1)
  76. Format                                   : AC-3 MLP FBA 16-ch
  77. Format/Info                              : Audio Coding 3 + Meridian Lossless Packing FBA with 16-channel presentation
  78. Commercial name                          : Dolby TrueHD with Dolby Atmos
  79. Muxing mode                              : Stream extension
  80. Codec ID                                 : 131
  81. Duration                                 : 1 h 21 min
  82. Bit rate mode                            : Variable
  83. Bit rate                                 : 640 kb/s
  84. Maximum bit rate                         : 5 634 kb/s
  85. Channel(s)                               : 8 channels
  86. Channel layout                           : L R C LFE Ls Rs Lb Rb
  87. Sampling rate                            : 48.0 kHz
  88. Frame rate                               : 31.250 FPS (1536 SPF)
  89. Compression mode                         : Lossy
  90. Stream size                              : 372 MiB (1%)
  91. Service kind                             : Complete Main
  92. Number of dynamic objects                : 15
  93. Bed channel count                        : 1 channel
  94. Bed channel configuration                : LFE

  95. Audio #3
  96. ID                                       : 4354 (0x1102)
  97. Menu ID                                  : 1 (0x1)
  98. Format                                   : AC-3
  99. Format/Info                              : Audio Coding 3
  100. Commercial name                          : Dolby Digital
  101. Codec ID                                 : 129
  102. Duration                                 : 1 h 21 min
  103. Bit rate mode                            : Constant
  104. Bit rate                                 : 448 kb/s
  105. Channel(s)                               : 6 channels
  106. Channel layout                           : L R C LFE Ls Rs
  107. Sampling rate                            : 48.0 kHz
  108. Frame rate                               : 31.250 FPS (1536 SPF)
  109. Compression mode                         : Lossy
  110. Delay relative to video                  : 2 s 2 ms
  111. Stream size                              : 261 MiB (1%)
  112. Service kind                             : Complete Main

  113. Audio #4
  114. ID                                       : 4355 (0x1103)
  115. Menu ID                                  : 1 (0x1)
  116. Format                                   : AC-3
  117. Format/Info                              : Audio Coding 3
  118. Commercial name                          : Dolby Digital
  119. Codec ID                                 : 129
  120. Duration                                 : 1 h 21 min
  121. Bit rate mode                            : Constant
  122. Bit rate                                 : 256 kb/s
  123. Channel(s)                               : 2 channels
  124. Channel layout                           : L R
  125. Sampling rate                            : 48.0 kHz
  126. Frame rate                               : 31.250 FPS (1536 SPF)
  127. Compression mode                         : Lossy
  128. Delay relative to video                  : 2 s 2 ms
  129. Stream size                              : 149 MiB (0%)
  130. Service kind                             : Complete Main

  131. Audio #5
  132. ID                                       : 4356 (0x1104)
  133. Menu ID                                  : 1 (0x1)
  134. Format                                   : AC-3
  135. Format/Info                              : Audio Coding 3
  136. Commercial name                          : Dolby Digital
  137. Codec ID                                 : 129
  138. Duration                                 : 1 h 21 min
  139. Bit rate mode                            : Constant
  140. Bit rate                                 : 448 kb/s
  141. Channel(s)                               : 6 channels
  142. Channel layout                           : L R C LFE Ls Rs
  143. Sampling rate                            : 48.0 kHz
  144. Frame rate                               : 31.250 FPS (1536 SPF)
  145. Compression mode                         : Lossy
  146. Delay relative to video                  : 2 s 2 ms
  147. Stream size                              : 261 MiB (1%)
  148. Service kind                             : Complete Main

  149. Audio #6
  150. ID                                       : 4357 (0x1105)
  151. Menu ID                                  : 1 (0x1)
  152. Format                                   : AC-3
  153. Format/Info                              : Audio Coding 3
  154. Commercial name                          : Dolby Digital
  155. Codec ID                                 : 129
  156. Duration                                 : 1 h 21 min
  157. Bit rate mode                            : Constant
  158. Bit rate                                 : 448 kb/s
  159. Channel(s)                               : 6 channels
  160. Channel layout                           : L R C LFE Ls Rs
  161. Sampling rate                            : 48.0 kHz
  162. Frame rate                               : 31.250 FPS (1536 SPF)
  163. Compression mode                         : Lossy
  164. Delay relative to video                  : 2 s 2 ms
  165. Stream size                              : 261 MiB (1%)
  166. Service kind                             : Complete Main

  167. Audio #7
  168. ID                                       : 4358 (0x1106)
  169. Menu ID                                  : 1 (0x1)
  170. Format                                   : AC-3
  171. Format/Info                              : Audio Coding 3
  172. Commercial name                          : Dolby Digital
  173. Codec ID                                 : 129
  174. Duration                                 : 1 h 21 min
  175. Bit rate mode                            : Constant
  176. Bit rate                                 : 448 kb/s
  177. Channel(s)                               : 6 channels
  178. Channel layout                           : L R C LFE Ls Rs
  179. Sampling rate                            : 48.0 kHz
  180. Frame rate                               : 31.250 FPS (1536 SPF)
  181. Compression mode                         : Lossy
  182. Delay relative to video                  : 2 s 2 ms
  183. Stream size                              : 261 MiB (1%)
  184. Service kind                             : Complete Main

  185. Audio #8
  186. ID                                       : 4359 (0x1107)
  187. Menu ID                                  : 1 (0x1)
  188. Format                                   : AC-3
  189. Format/Info                              : Audio Coding 3
  190. Commercial name                          : Dolby Digital
  191. Codec ID                                 : 129
  192. Duration                                 : 1 h 21 min
  193. Bit rate mode                            : Constant
  194. Bit rate                                 : 256 kb/s
  195. Channel(s)                               : 2 channels
  196. Channel layout                           : L R
  197. Sampling rate                            : 48.0 kHz
  198. Frame rate                               : 31.250 FPS (1536 SPF)
  199. Compression mode                         : Lossy
  200. Delay relative to video                  : 2 s 2 ms
  201. Stream size                              : 149 MiB (0%)
  202. Service kind                             : Complete Main

  203. Audio #9
  204. ID                                       : 4360 (0x1108)
  205. Menu ID                                  : 1 (0x1)
  206. Format                                   : AC-3
  207. Format/Info                              : Audio Coding 3
  208. Commercial name                          : Dolby Digital
  209. Codec ID                                 : 129
  210. Duration                                 : 1 h 21 min
  211. Bit rate mode                            : Constant
  212. Bit rate                                 : 256 kb/s
  213. Channel(s)                               : 2 channels
  214. Channel layout                           : L R
  215. Sampling rate                            : 48.0 kHz
  216. Frame rate                               : 31.250 FPS (1536 SPF)
  217. Compression mode                         : Lossy
  218. Delay relative to video                  : 2 s 2 ms
  219. Stream size                              : 149 MiB (0%)
  220. Service kind                             : Complete Main

  221. Audio #10
  222. ID                                       : 4361 (0x1109)
  223. Menu ID                                  : 1 (0x1)
  224. Format                                   : AC-3
  225. Format/Info                              : Audio Coding 3
  226. Commercial name                          : Dolby Digital
  227. Codec ID                                 : 129
  228. Duration                                 : 1 h 21 min
  229. Bit rate mode                            : Constant
  230. Bit rate                                 : 256 kb/s
  231. Channel(s)                               : 2 channels
  232. Channel layout                           : L R
  233. Sampling rate                            : 48.0 kHz
  234. Frame rate                               : 31.250 FPS (1536 SPF)
  235. Compression mode                         : Lossy
  236. Delay relative to video                  : 2 s 2 ms
  237. Stream size                              : 149 MiB (0%)
  238. Service kind                             : Complete Main

  239. Audio #11
  240. ID                                       : 4362 (0x110A)
  241. Menu ID                                  : 1 (0x1)
  242. Format                                   : AC-3
  243. Format/Info                              : Audio Coding 3
  244. Commercial name                          : Dolby Digital
  245. Codec ID                                 : 129
  246. Duration                                 : 1 h 21 min
  247. Bit rate mode                            : Constant
  248. Bit rate                                 : 256 kb/s
  249. Channel(s)                               : 2 channels
  250. Channel layout                           : L R
  251. Sampling rate                            : 48.0 kHz
  252. Frame rate                               : 31.250 FPS (1536 SPF)
  253. Compression mode                         : Lossy
  254. Delay relative to video                  : 2 s 2 ms
  255. Stream size                              : 149 MiB (0%)
  256. Service kind                             : Complete Main

  257. Audio #12
  258. ID                                       : 4363 (0x110B)
  259. Menu ID                                  : 1 (0x1)
  260. Format                                   : AC-3
  261. Format/Info                              : Audio Coding 3
  262. Commercial name                          : Dolby Digital
  263. Codec ID                                 : 129
  264. Duration                                 : 1 h 21 min
  265. Bit rate mode                            : Constant
  266. Bit rate                                 : 448 kb/s
  267. Channel(s)                               : 6 channels
  268. Channel layout                           : L R C LFE Ls Rs
  269. Sampling rate                            : 48.0 kHz
  270. Frame rate                               : 31.250 FPS (1536 SPF)
  271. Compression mode                         : Lossy
  272. Delay relative to video                  : 2 s 2 ms
  273. Stream size                              : 261 MiB (1%)
  274. Service kind                             : Complete Main

  275. Audio #13
  276. ID                                       : 4364 (0x110C)
  277. Menu ID                                  : 1 (0x1)
  278. Format                                   : AC-3
  279. Format/Info                              : Audio Coding 3
  280. Commercial name                          : Dolby Digital
  281. Codec ID                                 : 129
  282. Duration                                 : 1 h 21 min
  283. Bit rate mode                            : Constant
  284. Bit rate                                 : 448 kb/s
  285. Channel(s)                               : 6 channels
  286. Channel layout                           : L R C LFE Ls Rs
  287. Sampling rate                            : 48.0 kHz
  288. Frame rate                               : 31.250 FPS (1536 SPF)
  289. Compression mode                         : Lossy
  290. Delay relative to video                  : 2 s 2 ms
  291. Stream size                              : 261 MiB (1%)
  292. Service kind                             : Complete Main

  293. Audio #14
  294. ID                                       : 4365 (0x110D)
  295. Menu ID                                  : 1 (0x1)
  296. Format                                   : AC-3
  297. Format/Info                              : Audio Coding 3
  298. Commercial name                          : Dolby Digital
  299. Codec ID                                 : 129
  300. Duration                                 : 1 h 21 min
  301. Bit rate mode                            : Constant
  302. Bit rate                                 : 448 kb/s
  303. Channel(s)                               : 6 channels
  304. Channel layout                           : L R C LFE Ls Rs
  305. Sampling rate                            : 48.0 kHz
  306. Frame rate                               : 31.250 FPS (1536 SPF)
  307. Compression mode                         : Lossy
  308. Delay relative to video                  : 2 s 2 ms
  309. Stream size                              : 261 MiB (1%)
  310. Service kind                             : Complete Main

  311. Audio #15
  312. ID                                       : 4366 (0x110E)
  313. Menu ID                                  : 1 (0x1)
  314. Format                                   : AC-3
  315. Format/Info                              : Audio Coding 3
  316. Commercial name                          : Dolby Digital
  317. Codec ID                                 : 129
  318. Duration                                 : 1 h 21 min
  319. Bit rate mode                            : Constant
  320. Bit rate                                 : 448 kb/s
  321. Channel(s)                               : 6 channels
  322. Channel layout                           : L R C LFE Ls Rs
  323. Sampling rate                            : 48.0 kHz
  324. Frame rate                               : 31.250 FPS (1536 SPF)
  325. Compression mode                         : Lossy
  326. Delay relative to video                  : 2 s 2 ms
  327. Stream size                              : 261 MiB (1%)
  328. Service kind                             : Complete Main

  329. Text #1
  330. ID                                       : 4768 (0x12A0)
  331. Menu ID                                  : 1 (0x1)
  332. Format                                   : PGS
  333. Codec ID                                 : 144

  334. Text #2
  335. ID                                       : 4769 (0x12A1)
  336. Menu ID                                  : 1 (0x1)
  337. Format                                   : PGS
  338. Codec ID                                 : 144

  339. Text #3
  340. ID                                       : 4770 (0x12A2)
  341. Menu ID                                  : 1 (0x1)
  342. Format                                   : PGS
  343. Codec ID                                 : 144

  344. Text #4
  345. ID                                       : 4771 (0x12A3)
  346. Menu ID                                  : 1 (0x1)
  347. Format                                   : PGS
  348. Codec ID                                 : 144

  349. Text #5
  350. ID                                       : 4772 (0x12A4)
  351. Menu ID                                  : 1 (0x1)
  352. Format                                   : PGS
  353. Codec ID                                 : 144

  354. Text #6
  355. ID                                       : 4773 (0x12A5)
  356. Menu ID                                  : 1 (0x1)
  357. Format                                   : PGS
  358. Codec ID                                 : 144
  359. Delay relative to video                  : 8 s 884 ms

  360. Text #7
  361. ID                                       : 4774 (0x12A6)
  362. Menu ID                                  : 1 (0x1)
  363. Format                                   : PGS
  364. Codec ID                                 : 144

  365. Text #8
  366. ID                                       : 4775 (0x12A7)
  367. Menu ID                                  : 1 (0x1)
  368. Format                                   : PGS
  369. Codec ID                                 : 144

  370. Text #9
  371. ID                                       : 4776 (0x12A8)
  372. Menu ID                                  : 1 (0x1)
  373. Format                                   : PGS
  374. Codec ID                                 : 144

  375. Text #10
  376. ID                                       : 4777 (0x12A9)
  377. Menu ID                                  : 1 (0x1)
  378. Format                                   : PGS
  379. Codec ID                                 : 144

  380. Text #11
  381. ID                                       : 4778 (0x12AA)
  382. Menu ID                                  : 1 (0x1)
  383. Format                                   : PGS
  384. Codec ID                                 : 144

  385. Text #12
  386. ID                                       : 4779 (0x12AB)
  387. Menu ID                                  : 1 (0x1)
  388. Format                                   : PGS
  389. Codec ID                                 : 144

  390. Text #13
  391. ID                                       : 4780 (0x12AC)
  392. Menu ID                                  : 1 (0x1)
  393. Format                                   : PGS
  394. Codec ID                                 : 144

  395. Text #14
  396. ID                                       : 4781 (0x12AD)
  397. Menu ID                                  : 1 (0x1)
  398. Format                                   : PGS
  399. Codec ID                                 : 144

  400. Text #15
  401. ID                                       : 4782 (0x12AE)
  402. Menu ID                                  : 1 (0x1)
  403. Format                                   : PGS
  404. Codec ID                                 : 144

  405. Text #16
  406. ID                                       : 4783 (0x12AF)
  407. Menu ID                                  : 1 (0x1)
  408. Format                                   : PGS
  409. Codec ID                                 : 144

  410. Text #17
  411. ID                                       : 4784 (0x12B0)
  412. Menu ID                                  : 1 (0x1)
  413. Format                                   : PGS
  414. Codec ID                                 : 144

  415. Text #18
  416. ID                                       : 4785 (0x12B1)
  417. Menu ID                                  : 1 (0x1)
  418. Format                                   : PGS
  419. Codec ID                                 : 144

  420. Text #19
  421. ID                                       : 4786 (0x12B2)
  422. Menu ID                                  : 1 (0x1)
  423. Format                                   : PGS
  424. Codec ID                                 : 144

  425. Text #20
  426. ID                                       : 4787 (0x12B3)
  427. Menu ID                                  : 1 (0x1)
  428. Format                                   : PGS
  429. Codec ID                                 : 144

  430. Text #21
  431. ID                                       : 4788 (0x12B4)
  432. Menu ID                                  : 1 (0x1)
  433. Format                                   : PGS
  434. Codec ID                                 : 144

  435. Text #22
  436. ID                                       : 4789 (0x12B5)
  437. Menu ID                                  : 1 (0x1)
  438. Format                                   : PGS
  439. Codec ID                                 : 144

  440. Text #23
  441. ID                                       : 4790 (0x12B6)
  442. Menu ID                                  : 1 (0x1)
  443. Format                                   : PGS
  444. Codec ID                                 : 144

  445. Text #24
  446. ID                                       : 4791 (0x12B7)
  447. Menu ID                                  : 1 (0x1)
  448. Format                                   : PGS
  449. Codec ID                                 : 144
複製代碼
經過轉換的單軌雙層MKV檔(截選前20分鐘):
  1. General
  2. Unique ID                                : 115776339415976230878083270537373873588 (0x5719B63EA3467605E665366F9524F5B4)
  3. Complete name                            : \\Share\Storage\Movies\GOTS08E03-STDL.dvhe.07.06.mkv
  4. Format                                   : Matroska
  5. Format version                           : Version 2
  6. File size                                : 7.77 GiB
  7. Duration                                 : 20 min 0 s
  8. Overall bit rate mode                    : Variable
  9. Overall bit rate                         : 55.6 Mb/s
  10. Movie name                               : GOTS08E03-001
  11. Encoded date                             : UTC 2021-01-16 16:17:58
  12. Writing application                      : MakeMKV v1.15.4 win(x64-release)
  13. Writing library                          : libmakemkv v1.15.4 (1.3.10/1.5.2) win(x64-release)

  14. Video
  15. ID                                       : 1
  16. Format                                   : HEVC
  17. Format/Info                              : High Efficiency Video Coding
  18. Format profile                           : Main 10@L5.1@High
  19. HDR format                               : Dolby Vision, Version 1.0, dvhe.07.06, BL+EL+RPU, Blu-ray compatible / SMPTE ST 2086, HDR10 compatible
  20. Codec ID                                 : V_MPEGH/ISO/HEVC
  21. Duration                                 : 20 min 0 s
  22. Bit rate                                 : 51.8 Mb/s
  23. Width                                    : 3 840 pixels
  24. Height                                   : 2 160 pixels
  25. Display aspect ratio                     : 16:9
  26. Frame rate mode                          : Constant
  27. Frame rate                               : 23.976 (24000/1001) FPS
  28. Color space                              : YUV
  29. Chroma subsampling                       : 4:2:0 (Type 2)
  30. Bit depth                                : 10 bits
  31. Bits/(Pixel*Frame)                       : 0.260
  32. Stream size                              : 7.23 GiB (93%)
  33. Language                                 : English
  34. Default                                  : No
  35. Forced                                   : No
  36. Color range                              : Limited
  37. Color primaries                          : BT.2020
  38. Transfer characteristics                 : PQ
  39. Matrix coefficients                      : BT.2020 non-constant
  40. Mastering display color primaries        : BT.2020
  41. Mastering display luminance              : min: 0.0001 cd/m2, max: 1000 cd/m2

  42. Audio
  43. ID                                       : 2
  44. Format                                   : MLP FBA 16-ch
  45. Format/Info                              : Meridian Lossless Packing FBA with 16-channel presentation
  46. Commercial name                          : Dolby TrueHD with Dolby Atmos
  47. Codec ID                                 : A_TRUEHD
  48. Duration                                 : 20 min 0 s
  49. Bit rate mode                            : Variable
  50. Bit rate                                 : 3 838 kb/s
  51. Maximum bit rate                         : 5 634 kb/s
  52. Channel(s)                               : 8 channels
  53. Channel layout                           : L R C LFE Ls Rs Lb Rb
  54. Sampling rate                            : 48.0 kHz
  55. Frame rate                               : 1 200.000 FPS (40 SPF)
  56. Bit depth                                : 24 bits
  57. Compression mode                         : Lossless
  58. Stream size                              : 549 MiB (7%)
  59. Title                                    : Surround 7.1
  60. Language                                 : English
  61. Default                                  : Yes
  62. Forced                                   : No
  63. Number of dynamic objects                : 15
  64. Bed channel count                        : 1 channel
  65. Bed channel configuration                : LFE

  66. Text
  67. ID                                       : 3
  68. Format                                   : PGS
  69. Codec ID                                 : S_HDMV/PGS
  70. Codec ID/Info                            : Picture based subtitle format used on BDs/HD-DVDs
  71. Duration                                 : 18 min 13 s
  72. Bit rate                                 : 2 722 b/s
  73. Count of elements                        : 73
  74. Stream size                              : 363 KiB (0%)
  75. Language                                 : Chinese
  76. Default                                  : Yes
  77. Forced                                   : No
複製代碼

Screenshot_20210123-115738.png



被媒體評為2020最佳劇集的【The Mandalorian】自然不會錯過:(杜比視界Profile5版)
  1. General
  2. Complete name                            : \\Share\Storage\Movies\The.Mandalorian.S02E01.2160p.WEB-DL.DDP5.1.Atmos.DV.HEVC-MZABI.mp4
  3. Format                                   : MPEG-4
  4. Format profile                           : Base Media / Version 2
  5. Codec ID                                 : mp42 (mp42/dby1/isom)
  6. File size                                : 8.25 GiB
  7. Duration                                 : 51 min 51 s
  8. Overall bit rate                         : 22.8 Mb/s
  9. Encoded date                             : UTC 2020-11-02 16:16:57
  10. Tagged date                              : UTC 2020-11-02 16:16:57

  11. Video
  12. ID                                       : 1
  13. Format                                   : HEVC
  14. Format/Info                              : High Efficiency Video Coding
  15. Format profile                           : Main 10@L5.2@Main
  16. HDR format                               : Dolby Vision, Version 1.0, dvhe.05.06, BL+RPU
  17. Codec ID                                 : dvhe
  18. Codec ID/Info                            : High Efficiency Video Coding with Dolby Vision
  19. Duration                                 : 51 min 51 s
  20. Bit rate                                 : 22.0 Mb/s
  21. Width                                    : 3 840 pixels
  22. Height                                   : 2 160 pixels
  23. Display aspect ratio                     : 16:9
  24. Frame rate mode                          : Constant
  25. Frame rate                               : 23.976 (24000/1001) FPS
  26. Color space                              : YUV
  27. Chroma subsampling                       : 4:2:0 (Type 0)
  28. Bit depth                                : 10 bits
  29. Bits/(Pixel*Frame)                       : 0.111
  30. Stream size                              : 7.97 GiB (97%)
  31. Default                                  : Yes
  32. Alternate group                          : 1
  33. Encoded date                             : UTC 2020-11-02 16:16:57
  34. Tagged date                              : UTC 2020-11-02 16:16:57
  35. Color range                              : Full
  36. Codec configuration box                  : hvcC+dvcC

  37. Audio
  38. ID                                       : 2
  39. Format                                   : E-AC-3 JOC
  40. Format/Info                              : Enhanced AC-3 with Joint Object Coding
  41. Commercial name                          : Dolby Digital Plus with Dolby Atmos
  42. Codec ID                                 : ac-3
  43. Duration                                 : 51 min 51 s
  44. Bit rate mode                            : Constant
  45. Bit rate                                 : 768 kb/s
  46. Channel(s)                               : 6 channels
  47. Channel layout                           : L R C LFE Ls Rs
  48. Sampling rate                            : 48.0 kHz
  49. Frame rate                               : 31.250 FPS (1536 SPF)
  50. Compression mode                         : Lossy
  51. Stream size                              : 285 MiB (3%)
  52. Language                                 : English
  53. Service kind                             : Complete Main
  54. Default                                  : Yes
  55. Alternate group                          : 2
  56. Encoded date                             : UTC 2020-11-02 16:16:57
  57. Tagged date                              : UTC 2020-11-02 16:16:57
  58. Complexity index                         : Not present / 16
  59. Number of dynamic objects                : 15
  60. Bed channel count                        : 1 channel
  61. Bed channel configuration                : LFE
複製代碼
Screenshot_20210123-114928.png



4K HLG AAC5.1 MP4檔:
  1. General
  2. Complete name                            : \\Share\Storage\Movies\李玟.2160pHLG.AAC5.1.mp4
  3. Format                                   : MPEG-4
  4. Format profile                           : Base Media
  5. Codec ID                                 : isom (isom/iso2/mp41)
  6. File size                                : 1.83 GiB
  7. Duration                                 : 5 min 38 s
  8. Overall bit rate mode                    : Variable
  9. Overall bit rate                         : 46.3 Mb/s
  10. Writing application                      : Lavf58.53.100

  11. Video
  12. ID                                       : 1
  13. Format                                   : HEVC
  14. Format/Info                              : High Efficiency Video Coding
  15. Format profile                           : Main 10@L5.1@High
  16. Codec ID                                 : hev1
  17. Codec ID/Info                            : High Efficiency Video Coding
  18. Duration                                 : 5 min 38 s
  19. Source duration                          : 5 min 38 s
  20. Bit rate                                 : 45.3 Mb/s
  21. Width                                    : 3 840 pixels
  22. Height                                   : 2 160 pixels
  23. Display aspect ratio                     : 16:9
  24. Frame rate mode                          : Constant
  25. Frame rate                               : 50.000 FPS
  26. Standard                                 : Component
  27. Color space                              : YUV
  28. Chroma subsampling                       : 4:2:0 (Type 0)
  29. Bit depth                                : 10 bits
  30. Bits/(Pixel*Frame)                       : 0.109
  31. Stream size                              : 1.79 GiB (98%)
  32. Source stream size                       : 1.79 GiB (98%)
  33. Color range                              : Limited
  34. Color primaries                          : BT.2020
  35. Transfer characteristics                 : HLG
  36. Matrix coefficients                      : BT.2020 non-constant
  37. mdhd_Duration                            : 338580
  38. Codec configuration box                  : hvcC

  39. Audio
  40. ID                                       : 2
  41. Format                                   : AAC LC
  42. Format/Info                              : Advanced Audio Codec Low Complexity
  43. Codec ID                                 : mp4a-40-2
  44. Duration                                 : 5 min 38 s
  45. Duration_LastFrame                       : -11 ms
  46. Bit rate mode                            : Variable
  47. Bit rate                                 : 1 005 kb/s
  48. Maximum bit rate                         : 1 024 kb/s
  49. Channel(s)                               : 6 channels
  50. Channel layout                           : C L R Ls Rs LFE
  51. Sampling rate                            : 48.0 kHz
  52. Frame rate                               : 46.875 FPS (1024 SPF)
  53. Compression mode                         : Lossy
  54. Stream size                              : 40.6 MiB (2%)
  55. Default                                  : Yes
  56. Alternate group                          : 1
複製代碼
Screenshot_20210123-120602.png


回覆 支持 反對

使用道具 舉報


 樓主| 發表於 2021-1-23 13:48:02 | 顯示全部樓層
本文最後由 6hzzz 於 2021-1-26 01:29 AM 編輯

不完全總結

經過一週時間的親密接觸,我越發愛上這部UHD3000了,實際的觀賞效果比用HDMI採集轉碼后的效果,要高出無量倍,溫暖豔麗的畫風著實養眼。尤其杜比視界片源,RTD1619DR的Dolby Vision VS10處理引擎功不可沒,就算轉成了SDR輸出,不失真的高飽和度和高對比度,換句話說該亮的地方亮,該暗的地方暗,色彩出得來。就拿流媒體杜比視界版的【The Mandalorian】來說,觀賞體驗就比很多HDR10的UHDBD原盤要來得爽,來得更過癮!而另一個讓我感到驚喜的地方,就是BT.2111的HLG轉SDR,灰度階梯表現非常完美,是目前見到最精准的,沒有之一。

聲音方面,有了ESS9068以及補品元件,再加上環牛線性和開關電源的獨立供電,使得UHD3000的聲音表現,比前輩UHD2000要高出不少,解析力,結像力,音場的營造都有提升。而且,最重要的是,就算長時間聆聽也絕對不會感到厭倦,非常的耐聽。這種體驗是無法通過雲體驗感受到的!所以,各位如果有機會一定要親臨現場,親自聆聽來感受UHD3000的魔力吧!


回覆 支持 1 反對 0

使用道具 舉報


發表於 2021-2-2 13:00:46 | 顯示全部樓層
6hzzz 發表於 2021-1-23 01:48 PM
不完全總結

經過一週時間的親密接觸,我越發愛上這部UHD3000了,實際的觀賞效果比用HDMI採集轉碼后的效果 ...

這總結結得好,完全同意。聲音真的是讚。另外很感謝樓主對於色準的測試,很受用。感激!
回覆 支持 反對

使用道具 舉報


 樓主| 發表於 2021-3-23 17:32:32 | 顯示全部樓層
本文最後由 6hzzz 於 2021-4-9 10:47 PM 編輯

UHD3000 v6.1.15|v6.1.15G公測版固件實測

Screenshot_20210323-141843.png

Screenshot_20210323-141719.png

Screenshot_20210323-141751.png

Screenshot_20210323-155754.png

Screenshot_20210323-155924.png





回覆 支持 1 反對 0

使用道具 舉報


發表於 2021-4-10 20:09:55 | 顯示全部樓層
請問有GOOGLE商店嗎?能不能使用TIDAL
回覆 支持 反對

使用道具 舉報


 樓主| 發表於 2021-4-10 20:33:14 | 顯示全部樓層
ilss0902 發表於 2021-4-10 08:09 PM
請問有GOOGLE商店嗎?能不能使用TIDAL

回答都是YES!

第一個問題答案在此帖:
芝杜發佈Z9X&Z10PRO&Z1000PRO&UHD3000 v6.2.0|v6.2.0G公測版固件
https://hd.club.tw/thread-271777-1-1.html



第二個問題答案在此帖:
ZIDOO UHD3000 - 芝杜2021影音雙棲Dolby Vision+MQA文武雙全的旗艦之作!
https://hd.club.tw/thread-270308-1-1.html



回覆 支持 反對

使用道具 舉報


發表於 2021-4-11 22:05:46 | 顯示全部樓層
6hzzz 發表於 2021-4-10 08:33 PM
回答都是YES!

第一個問題答案在此帖:

謝謝回覆
回覆 支持 反對

使用道具 舉報


 樓主| 發表於 2021-6-18 00:18:28 | 顯示全部樓層
芝杜UHD3000 v6.3.12|v6.3.12G 公测版固件

型号:UHD3000
版本号:v6.3.12
链接:http://apidl.zidoo.tv/uhd3000/v6 ... 554_ota-package.zip
MD5: 7EF09B29D1D8F1322856B7E34C20C75F
升级方式:OTA
版本类型:公测版本

版本号:v6.3.12_G
链接:http://apidl.zidoo.tv/uhd3000/v6 ... 621_ota-package.zip
MD5: F55088EABD10C1EC84C287F695547EDB
升级方式:OTA
版本类型:公测版本

OTA升级教程:https://docs.qq.com/doc/DSkxoZEZmT1dBQ3Rt
更新日志:https://docs.qq.com/doc/DSnRaVXJyalpxY1pN

回覆 支持 反對

使用道具 舉報


發表於 2021-7-2 07:28:12 | 顯示全部樓層
詳盡的測試報告~
用數字說明了,UHD3000強大的性能
除了畫質跟聲音很滿意之外
自己最愛UHD3000的操控性!
回覆 支持 反對

使用道具 舉報

您需要登入後才可以回文 登入 | 註冊

本版積分規則

熱門推薦

捕捉鮮活影像,FIBBR 8K HDMI 2.1銅線閃耀登場
捕捉鮮活影像,FIBBR 8K H
捕捉鮮活影像,FIBBR 8K HDMI 2.1銅線閃耀登場 眾所周知,FIBBR
四炮齊發,君臨天下 四隻 Kreisel Sound 超低音的超爽感受
四炮齊發,君臨天下 四隻
四炮齊發,君臨天下 四支 Kreisel Sound 超低音的超爽感受 這個
STARKE BREV SW10小小體積,大大驚喜
STARKE BREV SW10小小體積
STARKE BREV SW10小小體積,大大驚喜 弟一直以來都是用DSPEAKE
預售屋之家庭劇院規劃管線預埋與音響放置問題
預售屋之家庭劇院規劃管線
本帖最後由 love512rx 於 2019-1-18 09:57 PM 編輯 目前在規
美律電聲實驗室-無響室
美律電聲實驗室-無響室
本文章最後由 小許 於 2013-3-29 11:58 編輯 不要太多文字的

聯絡我們| 問題反映| 小黑屋| 手機版| Archiver|  本網站特別聘請 蔡家豪律師 為本站法律顧問

快速回覆 返回頂部 返回列表